TAMILMOVIEROCKERS

TAMILMOVIEROCKERS (http://www.tamilmovierockers.net/forums/index.php)
-   Telugu Release (http://www.tamilmovierockers.net/forums/forumdisplay.php?f=112)
-   -   2K Baahubali - The Beginning - Official Trailer(Tamil)-Team TMR (http://www.tamilmovierockers.net/forums/showthread.php?t=8215)

Vignesh24 01-06-2015 02:33 PM

2K Baahubali - The Beginning - Official Trailer(Tamil)-Team TMR
 
1 Attachment(s)
Video Info


Code:

  General
      Complete name : Baahubali‬ - Official Trailer (Tamil) - SS Rajamouli - Prabhas, Rana Dagubatti.mp4
      Format : MPEG-4
      Format profile : Base Media
      Codec ID : isom
      File size : 81.9 MiB
      Duration : 2mn 5s
      Overall bit rate : 5 477 Kbps
      Writing application : Lavf54.29.104
  Video #1
      ID : 1
      Format : AVC
      Format/Info : Advanced Video Codec
      Format profile : High@L4.2
      Format settings, CABAC : Yes
      Format settings, ReFrames : 2 frames
      Codec ID : avc1
      Codec ID/Info : Advanced Video Coding
      Duration : 2mn 5s
      Bit rate : 5 349 Kbps
      Width : 2 048 pixels
      Height : 1 080 pixels
      Display aspect ratio : 1.896
      Frame rate mode : Constant
      Frame rate : 24.000 fps
      Color space : YUV
      Chroma subsampling : 4:2:0
      Bit depth : 8 bits
      Scan type : Progressive
      Bits/(Pixel*Frame) : 0.101
      Stream size : 79.9 MiB (98%)
  Audio #2
      ID : 2
      Format : AAC
      Format/Info : Advanced Audio Codec
      Format profile : LC
      Codec ID : 40
      Duration : 2mn 5s
      Bit rate mode : Constant
      Bit rate : 126 Kbps
      Channel(s) : 2 channels
      Channel positions : Front: L R
      Sampling rate : 44.1 KHz
      Compression mode : Lossy
      Stream size : 1.88 MiB (2%)

Screenshots

http://t1.someimage.com/e6NCtGO.jpg http://t1.someimage.com/L0JdagH.jpg http://t1.someimage.com/WPqH63Z.jpg http://t1.someimage.com/noxdCSc.jpg http://t1.someimage.com/6ZHRawv.jpg http://t1.someimage.com/F7G1qOG.jpg http://t1.someimage.com/8ed4IY7.jpg http://t1.someimage.com/F6MFmvq.jpg http://t1.someimage.com/T6zIYwt.jpg http://t1.someimage.com/VoGv0LN.jpg http://t1.someimage.com/ssuNPzF.jpg http://t1.someimage.com/WlYJjRC.jpg

Minnal 01-06-2015 05:02 PM

Thanks for the share

Jalaludeen 01-06-2015 08:41 PM

Thanks for sharing

TMR KING 01-06-2015 10:48 PM

Thanks For The Release

MasssBabu 19-08-2016 04:08 AM

Nice share

Mr.M 04-11-2017 06:44 PM

Thanks for Share Bro

Subbu2000 26-06-2018 04:16 AM

good one

Manuwalde 17-07-2018 06:18 PM

सुसंध्या

Mr.M 19-07-2018 06:28 PM

Good Share


All times are GMT +1. The time now is 09:30 PM.

Powered by vBulletin® Version 3.8.7
Copyright ©2000 - 2018, vBulletin Solutions, Inc.
Ad Management plugin by RedTyger