TAMILMOVIEROCKERS

TAMILMOVIEROCKERS (http://www.tamilmovierockers.net/forums/index.php)
-   Trailers (http://www.tamilmovierockers.net/forums/forumdisplay.php?f=71)
-   -   Ru (2015) - Official Trailer - Full HD - 1080p - Pathi - TMR (http://www.tamilmovierockers.net/forums/showthread.php?t=6082)

Mr.Pathi 23rd-February-2015 06:07 PM

Ru (2015) - Official Trailer - Full HD - 1080p - Pathi - TMR
 
1 Attachment(s)
http://s23.postimg.org/sle3z4vnv/irf...0325510950.jpg

http://s27.postimg.org/nx7a80trn/w_S9ehig.png
Code:

Direction:Sadasivam.C
Cast:Irfann,Rachitha,Tanmaiya,Adhavan,Perarsu,Manojkumar.A,Anand,Bharath,Ram
Cinematographer - I.Naveen Kumar
Music Director - P.R.Srinarth
Editor - LVK DASS
Art - Badri
Lyrics - S.Gananagavel,VE.Madhan Kumar
Choreography - Robert,Joymathi
Stunts - Kunfu Chandru
Production Executive Vijyan
PRO - Suresh Chandra
Producer - Veena Anand

http://s27.postimg.org/nx7a80trn/w_S9ehig.png
Code:

Format                                  : MPEG-4
Format profile                          : Base Media
Codec ID                                : isom
File size                                : 66.4 MiB
Duration                                : 2mn 0s
Overall bit rate mode                    : Variable
Overall bit rate                        : 4 603 Kbps
Writing application                      : Lavf54.63.104

Video
ID                                      : 1
Format                                  : AVC
Format/Info                              : Advanced Video Codec
Format profile                          : Main@L4.0
Format settings, CABAC                  : Yes
Format settings, ReFrames                : 1 frame
Codec ID                                : avc1
Codec ID/Info                            : Advanced Video Coding
Duration                                : 2mn 0s
Bit rate                                : 4 496 Kbps
Width                                    : 1 920 pixels
Height                                  : 1 080 pixels
Display aspect ratio                    : 16:9
Frame rate mode                          : Constant
Frame rate                              : 25.000 fps
Color space                              : YUV
Chroma subsampling                      : 4:2:0
Bit depth                                : 8 bits
Scan type                                : Progressive
Bits/(Pixel*Frame)                      : 0.087
Stream size                              : 64.1 MiB (97%)
Writing library                          : x264 core 129

Audio
ID                                      : 2
Format                                  : AAC
Format/Info                              : Advanced Audio Codec
Format profile                          : LC
Codec ID                                : 40
Duration                                : 2mn 0s
Duration_FirstFrame                      : 70ms
Bit rate mode                            : Variable
Bit rate                                : 148 Kbps
Maximum bit rate                        : 176 Kbps
Channel(s)                              : 2 channels
Channel positions                        : Front: L R
Sampling rate                            : 44.1 KHz
Compression mode                        : Lossy
Stream size                              : 2.14 MiB (3%)

http://s12.postimg.org/zbonqj7cd/14ms2fk.png
http://t1.someimage.com/IadT6jh.jpg http://t1.someimage.com/DO215wF.jpg http://t1.someimage.com/h3062o6.jpg http://t1.someimage.com/ofmllhz.jpg

!! Please Share With Proper Credits (Mr.Pathi @ TMR) Else Don't Download Here !!

!!! Please Keep Seeding After Download As Long As Possible !!!

http://s13.postimg.org/c2y6c4ihz/N4_S1.gif
http://s29.postimg.org/jf3zpe81z/9z_Z3rmo.png


http://s3.postimg.org/ufrt94uj7/hytdrh.jpg

http://s30.postimg.org/q4qze41hd/gggif.gif

Cenanandan 23rd-February-2015 06:16 PM

Re: Ru (2015) - Official Trailer - Full HD - 1080p - Pathi - TMR
 
good share

TMR KING 23rd-February-2015 09:32 PM

Re: Ru (2015) - Official Trailer - Full HD - 1080p - Pathi - TMR
 
Thanks For The Release

Saski 23rd-February-2015 09:46 PM

Re: Ru (2015) - Official Trailer - Full HD - 1080p - Pathi - TMR
 
Thanks For The Release

Atmsriram 14th-July-2016 07:29 AM

Thank You for Sharing

MasssBabu 21st-April-2018 08:07 AM

Thanks for the share

Manuwalde 17th-July-2018 08:37 PM

Добрый вечер


All times are GMT +1. The time now is 06:35 AM.

Powered by vBulletin® Version 3.8.7
Copyright ©2000 - 2018, vBulletin Solutions, Inc.
Ad Management plugin by RedTyger