TAMILMOVIEROCKERS

TAMILMOVIEROCKERS (http://www.tamilmovierockers.net/forums/index.php)
-   New Movie Albums (http://www.tamilmovierockers.net/forums/forumdisplay.php?f=44)
-   -   Keni (2018) - Parthiban in - Tamil - MP3 Songs - CBR - 320 kbps - Team TMR (http://www.tamilmovierockers.net/forums/showthread.php?t=23462)

Subbu2000 10-02-2018 05:06 AM

Keni (2018) - Parthiban in - Tamil - MP3 Songs - CBR - 320 kbps - Team TMR
 
1 Attachment(s)
Keni (2018) - Parthiban in - Tamil - MP3 Songs - CBR - 320 kbps - Team TMR


https://preview.ibb.co/meq8BS/IMG_20180117_WA0144.jpg

MOVIE INFO

Starring: Parthiban, Nassar, Jayapradha, Revathi
Directed by: M.A. Nishad
Music by: M. Jayachandran
Produced by:
Country: India
Language: Tamil
Year: 2018


MEDIA INFO

Code:

Keni (2018) - Parthiban in -  Tamil - MP3 Songs - CBR - 320 kbps - Team TMR\Kalayum Meghame.mp3
Format                                  : MPEG Audio
File size                                : 8.90 MiB
Duration                                : 3 min 53 s
Overall bit rate mode                    : Constant
Overall bit rate                        : 320 kb/s
Writing library                          : LAME3.99r

Audio
Format                                  : MPEG Audio
Format version                          : Version 1
Format profile                          : Layer 3
Mode                                    : Joint stereo
Mode extension                          : MS Stereo
Duration                                : 3 min 53 s
Bit rate mode                            : Constant
Bit rate                                : 320 kb/s
Channel(s)                              : 2 channels
Sampling rate                            : 44.1 kHz
Compression mode                        : Lossy
Stream size                              : 8.90 MiB (100%)
Writing library                          : LAME3.99r
Encoding settings                        : -m j -V 4 -q 3 -lowpass 20.5

TRACK INFO



Vedithidum Bhoomi
Artists: Vijay Yesudas

Kalayum Meghame
Artists: Sithara Krishnakumar

Ayya Sami
Artists: K.J. Yesudas, S. P. Balasubrahmanyam

Bluray_123 10-02-2018 05:22 AM

Thanks fr the good share

Simma 10-02-2018 05:59 AM

Good sharing.

Hivecamps 10-02-2018 06:58 AM

Movie
 
Good Movie

Vallavaan123 10-02-2018 07:15 AM

Thanks fr the good share

Guna676 10-02-2018 10:24 AM

thank you sharing

Emet 10-02-2018 12:28 PM

Thanks a lot

MasssBabu 10-02-2018 01:44 PM

Thanks for the good share

Minnal 10-02-2018 04:33 PM

Thanks for the good share

raj&raj 10-02-2018 06:16 PM

Quote:

Originally Posted by Subbu2000 (Post 439483)
Keni (2018) - Parthiban in - Tamil - MP3 Songs - CBR - 320 kbps - Team TMR


https://preview.ibb.co/meq8BS/IMG_20180117_WA0144.jpg

MOVIE INFO

Starring: Parthiban, Nassar, Jayapradha, Revathi
Directed by: M.A. Nishad
Music by: M. Jayachandran
Produced by:
Country: India
Language: Tamil
Year: 2018


MEDIA INFO

Code:

Keni (2018) - Parthiban in -  Tamil - MP3 Songs - CBR - 320 kbps - Team TMR\Kalayum Meghame.mp3
Format                                  : MPEG Audio
File size                                : 8.90 MiB
Duration                                : 3 min 53 s
Overall bit rate mode                    : Constant
Overall bit rate                        : 320 kb/s
Writing library                          : LAME3.99r

Audio
Format                                  : MPEG Audio
Format version                          : Version 1
Format profile                          : Layer 3
Mode                                    : Joint stereo
Mode extension                          : MS Stereo
Duration                                : 3 min 53 s
Bit rate mode                            : Constant
Bit rate                                : 320 kb/s
Channel(s)                              : 2 channels
Sampling rate                            : 44.1 kHz
Compression mode                        : Lossy
Stream size                              : 8.90 MiB (100%)
Writing library                          : LAME3.99r
Encoding settings                        : -m j -V 4 -q 3 -lowpass 20.5

TRACK INFO



Vedithidum Bhoomi
Artists: Vijay Yesudas

Kalayum Meghame
Artists: Sithara Krishnakumar

Ayya Sami
Artists: K.J. Yesudas, S. P. Balasubrahmanyam

Mass..........


All times are GMT +1. The time now is 07:32 PM.

Powered by vBulletin® Version 3.8.7
Copyright ©2000 - 2018, vBulletin Solutions, Inc.
Ad Management plugin by RedTyger