View Single Post
(#1)
Old
Mr.M's Avatar
Mr.M Mr.M is offline
Quality Releaser
Points: 34,050, Level: 56
Points: 34,050, Level: 56 Points: 34,050, Level: 56 Points: 34,050, Level: 56
Level up: 84%, 200 Points needed
Level up: 84% Level up: 84% Level up: 84%
Activity: 99.6%
Activity: 99.6% Activity: 99.6% Activity: 99.6%

I proudly released 357 torrents with 8041 snatches
 
 
Join Date: Aug 2016
Posts: 1,812
Rep Power: 47
Mr.M has a reputation beyond repute
Mr.M has a reputation beyond reputeMr.M has a reputation beyond reputeMr.M has a reputation beyond reputeMr.M has a reputation beyond reputeMr.M has a reputation beyond reputeMr.M has a reputation beyond reputeMr.M has a reputation beyond reputeMr.M has a reputation beyond reputeMr.M has a reputation beyond repute
UL: 38.19 tb DL: 1.67 tb Ratio: 22.86
My Mood: Angelic
1 CD Magalir Mattum (2017) Tamil 1CD - WEB-HDRip - x264 - AVC - Team TMR - 17-10-2017

Magalir Mattum (2017) Tamil 1CD - WEB-HDRip - x264 - AVC - Team TMR


Code:
General

Complete name               : Magalir Mattum (2017) Tamil 1CD - WEB-HDRip - x264 - AVC - Team TMR.mkv
Format                      : Matroska
Format version              : Version 4 / Version 2
File size                   : 708 MiB
Duration                    : 2h 8mn
Overall bit rate            : 771 Kbps
Movie name                  : Team TMR
Encoded date                : UTC 2017-10-17 02:16:39
Writing application         : mkvmerge v8.7.0 ('All of the above') 64bit
Writing library             : libebml v1.3.3 + libmatroska v1.4.4

Video
ID                          : 1
Format                      : AVC
Format/Info                 : Advanced Video Codec
Format profile              : High@L2.1
Format settings, CABAC      : Yes
Format settings, ReFrames   : 4 frames
Codec ID                    : V_MPEG4/ISO/AVC
Duration                    : 2h 8mn
Bit rate                    : 673 Kbps
Width                       : 640 pixels
Height                      : 272 pixels
Display aspect ratio        : 2.35:1
Frame rate mode             : Constant
Frame rate                  : 25.000 fps
Color space                 : YUV
Chroma subsampling          : 4:2:0
Bit depth                   : 8 bits
Scan type                   : Progressive
Bits/(Pixel*Frame)          : 0.155
Stream size                 : 618 MiB (87%)
Title                       : Team TMR
Writing library             : x264 core 148 r2744 b97ae06
Encoding settings           : cabac=1 / ref=3 / deblock=1:0:0 / analyse=0x3:0x113 / me=hex / subme=7 / psy=1 / psy_rd=1.00:0.00 / mixed_ref=1 / me_range=16 / chroma_me=1 / trellis=1 / 8x8dct=1 / cqm=0 / deadzone=21,11 / fast_pskip=1 / chroma_qp_offset=-2 / threads=8 / lookahead_threads=1 / sliced_threads=0 / nr=0 / decimate=1 / interlaced=0 / bluray_compat=0 / constrained_intra=0 / bframes=3 / b_pyramid=2 / b_adapt=1 / b_bias=0 / direct=1 / weightb=1 / open_gop=0 / weightp=2 / keyint=250 / keyint_min=25 / scenecut=40 / intra_refresh=0 / rc_lookahead=40 / rc=2pass / mbtree=1 / bitrate=673 / ratetol=1.0 / qcomp=0.60 / qpmin=0 / qpmax=69 / qpstep=4 / cplxblur=20.0 / qblur=0.5 / ip_ratio=1.40 / aq=1:1.00
Language                    : Tamil
Default                     : Yes
Forced                      : No

Audio
ID                          : 2
Format                      : MPEG Audio
Format version              : Version 1
Format profile              : Layer 3
Mode                        : Joint stereo
Mode extension              : MS Stereo
Codec ID                    : A_MPEG/L3
Codec ID/Hint               : MP3
Duration                    : 2h 8mn
Bit rate mode               : Constant
Bit rate                    : 96.0 Kbps
Channel(s)                  : 2 channels
Sampling rate               : 48.0 KHz
Frame rate                  : 41.667 fps (1152 spf)
Compression mode            : Lossy
Stream size                 : 88.2 MiB (12%)
Title                       : Team TMR
Writing library             : LAME3.99.5
Language                    : Tamil
Default                     : Yes
Forced                      : No

Text
ID                          : 3
Format                      : UTF-8
Codec ID                    : S_TEXT/UTF8
Codec ID/Info               : UTF-8 Plain Text
Duration                    : 2h 8mn
Bit rate                    : 74 bps
Count of elements           : 2357
Stream size                 : 70.1 KiB (0%)
Title                       : Team TMR
Language                    : English
Default                     : Yes
Forced                      : No




The Following 13 Users Say Thank You to Mr.M For This Useful Post:

5 Lastest Threads by Mr.M
Thread Forum Last Poster Replies Views Last Post
Indrajith (2017) - WEB HD - 480P - Untouched -... TMR Ratio Boost Alaguvicky2 26 247 16-12-2017 12:16 AM
Theeran Adhigaaram Ondru (2017) Tamil - WEB HD -... Web HD/ Rips (Free Leech) Denali 34 370 14-12-2017 10:27 PM
Theeran Adhigaaram Ondru (2017) (2017) - WEB HD -... TMR Ratio Boost Loginuser 22 240 14-12-2017 09:36 PM
Theeran Adhigaaram Ondru (2017) - TRUE WEB HD -... TMR Ratio Boost Stun 51 395 14-12-2017 09:30 PM
Nenjil Thunivirundhal (2017) Tamil - Lotus - DVD5... TMR Ratio Boost Selva_78 21 263 13-12-2017 03:02 AM