View Single Post
(#1)
Old
Vignesh24 Vignesh24 is offline
TMR Member
Points: 3,366, Level: 16
Points: 3,366, Level: 16 Points: 3,366, Level: 16 Points: 3,366, Level: 16
Level up: 79%, 84 Points needed
Level up: 79% Level up: 79% Level up: 79%
Activity: 0%
Activity: 0% Activity: 0% Activity: 0%

I proudly released 29 torrents with 1121 snatches
 
 
Join Date: Oct 2014
Posts: 66
Rep Power: 13
Vignesh24 is a splendid one to beholdVignesh24 is a splendid one to beholdVignesh24 is a splendid one to beholdVignesh24 is a splendid one to beholdVignesh24 is a splendid one to beholdVignesh24 is a splendid one to beholdVignesh24 is a splendid one to behold
UL: 47.27 gb DL: 5.31 gb Ratio: 8.91
MP4 2K Baahubali - The Beginning - Official Trailer(Tamil)-Team TMR - 01-06-2015

Video Info


Code:
General Complete name : Baahubali‬ - Official Trailer (Tamil) - SS Rajamouli - Prabhas, Rana Dagubatti.mp4 Format : MPEG-4 Format profile : Base Media Codec ID : isom File size : 81.9 MiB Duration : 2mn 5s Overall bit rate : 5 477 Kbps Writing application : Lavf54.29.104 Video #1 ID : 1 Format : AVC Format/Info : Advanced Video Codec Format profile : High@L4.2 Format settings, CABAC : Yes Format settings, ReFrames : 2 frames Codec ID : avc1 Codec ID/Info : Advanced Video Coding Duration : 2mn 5s Bit rate : 5 349 Kbps Width : 2 048 pixels Height : 1 080 pixels Display aspect ratio : 1.896 Frame rate mode : Constant Frame rate : 24.000 fps Color space : YUV Chroma subsampling : 4:2:0 Bit depth : 8 bits Scan type : Progressive Bits/(Pixel*Frame) : 0.101 Stream size : 79.9 MiB (98%) Audio #2 ID : 2 Format : AAC Format/Info : Advanced Audio Codec Format profile : LC Codec ID : 40 Duration : 2mn 5s Bit rate mode : Constant Bit rate : 126 Kbps Channel(s) : 2 channels Channel positions : Front: L R Sampling rate : 44.1 KHz Compression mode : Lossy Stream size : 1.88 MiB (2%)
Screenshots





The Following 11 Users Say Thank You to Vignesh24 For This Useful Post:

5 Lastest Threads by Vignesh24
Thread Forum Last Poster Replies Views Last Post
1080p Premam Malare Official Video Song - Team... Music Videos APPA6799 31 4310 21-06-2015 07:45 AM
Chalo Chalo - Dwayne Bravo Feat(Official Music... Trailers Mr.M 4 954 03-06-2015 04:06 AM
2K Baahubali - The Beginning - Official... Telugu Release Mr.M 8 2237 01-06-2015 02:33 PM
Baahubali - The Beginning - Official Teaser... Trailers MasssBabu 3 946 31-05-2015 04:59 AM
Baahubali - The Beginning Teaser -1080 P-Team TMR Telugu Release Subbu2000 5 1485 30-05-2015 03:24 PM