TAMILMOVIEROCKERS Facebook Official
Ticket Torrents
Go Back   TAMILMOVIEROCKERS > -: Tamil Releases :- > BluRay/Web Rips > Hi-Def BluRay
Reload this Page [BD-50] MANKATHA (2011)- Ayn-1080P - AVC & DTS HD MA - Blu Devil @ TEAM TMR
Hi-Def BluRay BluRay BD 50/BD 25 Movies

Reply
 
Thread Tools Display Modes
(#1)
Old
OreJeevan's Avatar
OreJeevan OreJeevan is offline
TMR Member
Points: 9,914, Level: 29
Points: 9,914, Level: 29 Points: 9,914, Level: 29 Points: 9,914, Level: 29
Level up: 94%, 36 Points needed
Level up: 94% Level up: 94% Level up: 94%
Activity: 7.1%
Activity: 7.1% Activity: 7.1% Activity: 7.1%

I proudly released 28 torrents with 751 snatches
 
 
Join Date: Nov 2014
Posts: 835
Rep Power: 15
OreJeevan has much to be proud ofOreJeevan has much to be proud ofOreJeevan has much to be proud ofOreJeevan has much to be proud ofOreJeevan has much to be proud ofOreJeevan has much to be proud ofOreJeevan has much to be proud ofOreJeevan has much to be proud of
UL: 1.97 tb DL: 1.27 tb Ratio: 1.55
My Mood: Relaxed
Bray [BD-50] MANKATHA (2011)- Ayn-1080P - AVC & DTS HD MA - Blu Devil @ TEAM TMR - 31-12-2014

[BD-50] MANKATHA (2011)- Ayn-1080P - AVC & DTS HD MA - Blu Devil @ TEAM TMR












Quote:
MEDIA INFO
General
ID : 0 (0x0)
Format : BDAV
Format/Info : Blu-ray Video
File size : 43.6 GiB
Duration : 2h 40mn
Overall bit rate mode : Variable
Overall bit rate : 39.0 Mbps
Maximum Overall bit rate : 48.0 Mbps

Video
ID : 4113 (0x1011)
Menu ID : 1 (0x1)
Format : AVC
Format/Info : Advanced Video Codec
Format profile : High@L4.1
Format settings, CABAC : Yes
Format settings, ReFrames : 3 frames
Codec ID : 27
Duration : 2h 40mn
Bit rate mode : Variable
Bit rate : 29.0 Mbps
Maximum bit rate : 35.0 Mbps
Width : 1 920 pixels
Height : 1 080 pixels
Display aspect ratio : 16:9
Frame rate : 23.976 fps
Standard : NTSC


Audio #1
ID : 4352 (0x1100)
Menu ID : 1 (0x1)
Format : PCM
Format settings, Endianness : Big
Format settings, Sign : Signed
Muxing mode : Blu-ray
Codec ID : 128
Duration : 2h 40mn
Bit rate mode : Constant
Bit rate : 6 912 Kbps
Channel count : 6 channels
Channel positions : Front: L C R, Side: L R, LFE
Sampling rate : 48.0 KHz
Bit depth : 24 bits
Delay relative to video : 3s 253ms
Stream size : 7.74 GiB (18%)

Audio #2
ID : 4353 (0x1101)
Menu ID : 1 (0x1)
Format : DTS
Format/Info : Digital Theater Systems
Mode : 16
Format settings, Endianness : Big
Codec ID : 130
Duration : 2h 40mn
Bit rate mode : Constant
Bit rate : 1 510 Kbps
Channel count : 6 channels
Channel positions : Front: L C R, Side: L R, LFE
Sampling rate : 48.0 KHz
Bit depth : 24 bits
Compression mode : Lossy
Delay relative to video : 3s 253ms
Stream size : 1.69 GiB (4%)

Text
ID : 4608 (0x1200)
Menu ID : 1 (0x1)
Format : PGS
Codec ID : 144















Thanks to TAIBI for Menu Files



>> Please Share with Proper Credits <<

>> If you like my post Add Reps,Rate the Thread, Give Valuable Comments <<

>>If you download please seed for others and keep the thread Live<<



Attached Files
File Type: torrent Mankatha BD 50 Untouched.torrent (54.9 KB, 135 views), size: 43.64 gb, completed: 17
Name Size
File Type: torrent Mankatha AYN BD50 MENU.torrent (4.3 KB, 35 views), size: 351.34 mb, completed: 18
Name Size





Last edited by OreJeevan; 05-01-2015 at 05:58 AM.





5 Lastest Threads by OreJeevan
Thread Forum Last Poster Replies Views Last Post
SHADOW 2013 Telugu Movie Request OreJeevan 0 53 24-09-2018 01:36 PM
VEERA Telugu BDRIP Request OreJeevan 6 348 21-11-2017 12:00 PM
Kammatti Paadam DVD-9 Reseed Reseed Mr.M 2 197 05-10-2017 10:29 AM
Janatha Garage 1080P DTS HD MA Request Mr.M 2 240 17-07-2017 04:40 AM
Kuttram 23 1080P WebHD(TKT /HT) Request MasssBabu 3 272 21-04-2017 03:44 AM

(#2)
Old
Tintu's Avatar
Tintu Tintu is offline
TMR Member
Points: 5,992, Level: 22
Points: 5,992, Level: 22 Points: 5,992, Level: 22 Points: 5,992, Level: 22
Level up: 89%, 58 Points needed
Level up: 89% Level up: 89% Level up: 89%
Activity: 5.9%
Activity: 5.9% Activity: 5.9% Activity: 5.9%

I proudly released 25 torrents with 400 snatches
 
 
Join Date: Oct 2014
Posts: 813
Rep Power: 21
Tintu has a brilliant futureTintu has a brilliant futureTintu has a brilliant futureTintu has a brilliant futureTintu has a brilliant futureTintu has a brilliant futureTintu has a brilliant futureTintu has a brilliant futureTintu has a brilliant futureTintu has a brilliant futureTintu has a brilliant future
UL: 6.90 gb DL: 54.83 mb Ratio: 128.79
My Mood: Confused
Default Re: [BD-50] MANKATHA (2011)- Ayn-1080P - AVC & DTS HD MA - Blu Devil @ TEAM TMR - 31-12-2014

thankyou...




Peace Bro




Reply With Quote
(#3)
Old
Arundirectioner Arundirectioner is offline
Banned
Points: 9,064, Level: 28
Points: 9,064, Level: 28 Points: 9,064, Level: 28 Points: 9,064, Level: 28
Level up: 53%, 286 Points needed
Level up: 53% Level up: 53% Level up: 53%
Activity: 0%
Activity: 0% Activity: 0% Activity: 0%

I proudly released 104 torrents with 2155 snatches
 
 
Join Date: Oct 2014
Posts: 518
Rep Power: 0
Arundirectioner has a reputation beyond reputeArundirectioner has a reputation beyond reputeArundirectioner has a reputation beyond reputeArundirectioner has a reputation beyond reputeArundirectioner has a reputation beyond reputeArundirectioner has a reputation beyond reputeArundirectioner has a reputation beyond reputeArundirectioner has a reputation beyond reputeArundirectioner has a reputation beyond reputeArundirectioner has a reputation beyond repute
UL: 8.11 tb DL: 1.49 tb Ratio: 5.45
My Mood: Cheerful
Default Re: [BD-50] MANKATHA (2011)- Ayn-1080P - AVC & DTS HD MA - Blu Devil @ TEAM TMR - 31-12-2014

Excellent share Blu devil

You Rocked

Keep Rocking




Reply With Quote
(#4)
Old
Horss Horss is offline
TMR Member
Points: 10,777, Level: 31
Points: 10,777, Level: 31 Points: 10,777, Level: 31 Points: 10,777, Level: 31
Level up: 33%, 473 Points needed
Level up: 33% Level up: 33% Level up: 33%
Activity: 0%
Activity: 0% Activity: 0% Activity: 0%

I proudly released 122 torrents with 1125 snatches
 
 
Join Date: Dec 2014
Posts: 286
Rep Power: 33
Horss has a reputation beyond reputeHorss has a reputation beyond reputeHorss has a reputation beyond reputeHorss has a reputation beyond reputeHorss has a reputation beyond reputeHorss has a reputation beyond reputeHorss has a reputation beyond reputeHorss has a reputation beyond reputeHorss has a reputation beyond reputeHorss has a reputation beyond reputeHorss has a reputation beyond reputeHorss has a reputation beyond reputeHorss has a reputation beyond reputeHorss has a reputation beyond reputeHorss has a reputation beyond repute
UL: 14.70 tb DL: 2.37 tb Ratio: 6.20
My Mood: Bitchy
Default Re: [BD-50] MANKATHA (2011)- Ayn-1080P - AVC & DTS HD MA - Blu Devil @ TEAM TMR - 31-12-2014

Thanks bro, Keep Rocking, Happy New Year

But sorry to aask here : Why this following thoses

Code:
Audio #1
ID : 4352 (0x1100)
Menu ID : 1 (0x1)
Format : PCM
Format settings, Endianness : Big
Format settings, Sign : Signed
Muxing mode : Blu-ray
Codec ID : 128
Duration : 2h 40mn
Bit rate mode : Constant
Bit rate : 6 912 Kbps
Channel count : 6 channels
Channel positions : Front: L C R, Side: L R, LFE
Sampling rate : 48.0 KHz
Bit depth : 24 bits
Delay relative to video : 3s 253ms
Stream size : 7.74 GiB (18%)

Audio #2
ID : 4353 (0x1101)
Menu ID : 1 (0x1)
Format : DTS
Format/Info : Digital Theater Systems
Mode : 16
Format settings, Endianness : Big
Codec ID : 130
Duration : 2h 40mn
Bit rate mode : Constant
Bit rate : 1 510 Kbps
Channel count : 6 channels
Channel positions : Front: L C R, Side: L R, LFE
Sampling rate : 48.0 KHz
Bit depth : 24 bits
Compression mode : Lossy
Delay relative to video : 3s 253ms
Stream size : 1.69 GiB (4%)
Thanks for yours explanations. Can u post BDInfo pls ? Because MediaInfo can give some errors in bitrate...

Regards,
HORSS.







!!! Thanks & Reputation are My Energy, So Kindly Do That !!!





Last edited by Horss; 31-12-2014 at 06:13 PM.




Reply With Quote
(#5)
Old
OreJeevan's Avatar
OreJeevan OreJeevan is offline
TMR Member
Points: 9,914, Level: 29
Points: 9,914, Level: 29 Points: 9,914, Level: 29 Points: 9,914, Level: 29
Level up: 94%, 36 Points needed
Level up: 94% Level up: 94% Level up: 94%
Activity: 7.1%
Activity: 7.1% Activity: 7.1% Activity: 7.1%

I proudly released 28 torrents with 751 snatches
 
 
Join Date: Nov 2014
Posts: 835
Rep Power: 15
OreJeevan has much to be proud ofOreJeevan has much to be proud ofOreJeevan has much to be proud ofOreJeevan has much to be proud ofOreJeevan has much to be proud ofOreJeevan has much to be proud ofOreJeevan has much to be proud ofOreJeevan has much to be proud of
UL: 1.97 tb DL: 1.27 tb Ratio: 1.55
My Mood: Relaxed
Default Re: [BD-50] MANKATHA (2011)- Ayn-1080P - AVC & DTS HD MA - Blu Devil @ TEAM TMR - 31-12-2014

Quote:
Originally Posted by Horss View Post
Thanks bro, Keep Rocking, Happy New Year

But sorry to aask here : Why this following thoses

Code:
Audio #1
ID : 4352 (0x1100)
Menu ID : 1 (0x1)
Format : PCM
Format settings, Endianness : Big
Format settings, Sign : Signed
Muxing mode : Blu-ray
Codec ID : 128
Duration : 2h 40mn
Bit rate mode : Constant
Bit rate : 6 912 Kbps
Channel count : 6 channels
Channel positions : Front: L C R, Side: L R, LFE
Sampling rate : 48.0 KHz
Bit depth : 24 bits
Delay relative to video : 3s 253ms
Stream size : 7.74 GiB (18%)

Audio #2
ID : 4353 (0x1101)
Menu ID : 1 (0x1)
Format : DTS
Format/Info : Digital Theater Systems
Mode : 16
Format settings, Endianness : Big
Codec ID : 130
Duration : 2h 40mn
Bit rate mode : Constant
Bit rate : 1 510 Kbps
Channel count : 6 channels
Channel positions : Front: L C R, Side: L R, LFE
Sampling rate : 48.0 KHz
Bit depth : 24 bits
Compression mode : Lossy
Delay relative to video : 3s 253ms
Stream size : 1.69 GiB (4%)
Thanks for yours explanations. Can u post BDInfo pls ? Because MediaInfo can give some errors in bitrate...

Regards,
HORSS.
Yes Horss, Since there is no Menu Files in the playlist,,it couldn't built the structure of the Stream..I'm sorry extremely to all for not providing Menu Files...








Reply With Quote
(#6)
Old
KARTHIKEYAN4 KARTHIKEYAN4 is offline
TMR Member
Points: 5,414, Level: 21
Points: 5,414, Level: 21 Points: 5,414, Level: 21 Points: 5,414, Level: 21
Level up: 73%, 136 Points needed
Level up: 73% Level up: 73% Level up: 73%
Activity: 0%
Activity: 0% Activity: 0% Activity: 0%

   
Join Date: Oct 2014
Posts: 1,323
Rep Power: 10
KARTHIKEYAN4 is just really niceKARTHIKEYAN4 is just really niceKARTHIKEYAN4 is just really niceKARTHIKEYAN4 is just really niceKARTHIKEYAN4 is just really nice
UL: 14.19 gb DL: 9.96 gb Ratio: 1.42
My Mood: Bored
Default Re: [BD-50] MANKATHA (2011)- Ayn-1080P - AVC & DTS HD MA - Blu Devil @ TEAM TMR - 31-12-2014

Super share thanks




Reply With Quote
(#7)
Old
TMR KING's Avatar
TMR KING TMR KING is offline
TMR Member
Points: 40,374, Level: 62
Points: 40,374, Level: 62 Points: 40,374, Level: 62 Points: 40,374, Level: 62
Level up: 2%, 1,276 Points needed
Level up: 2% Level up: 2% Level up: 2%
Activity: 14.3%
Activity: 14.3% Activity: 14.3% Activity: 14.3%

I proudly released 49 torrents with 722 snatches
 
 
Join Date: Oct 2014
Posts: 9,148
Age: 23
Rep Power: 54
TMR KING has a reputation beyond repute
TMR KING has a reputation beyond reputeTMR KING has a reputation beyond reputeTMR KING has a reputation beyond repute
UL: 19.57 tb DL: 7.45 tb Ratio: 2.63
My Mood: Angelic
Default Re: [BD-50] MANKATHA (2011)- Ayn-1080P - AVC & DTS HD MA - Blu Devil @ TEAM TMR - 31-12-2014

Thanks For The Release




Reply With Quote
(#8)
Old
Minnal's Avatar
Minnal Minnal is offline
Quality Releaser
Points: 36,134, Level: 58
Points: 36,134, Level: 58 Points: 36,134, Level: 58 Points: 36,134, Level: 58
Level up: 57%, 516 Points needed
Level up: 57% Level up: 57% Level up: 57%
Activity: 50.0%
Activity: 50.0% Activity: 50.0% Activity: 50.0%

I proudly released 136 torrents with 1832 snatches
 
 
Join Date: Oct 2014
Posts: 4,808
Rep Power: 48
Minnal has a reputation beyond repute
Minnal has a reputation beyond reputeMinnal has a reputation beyond reputeMinnal has a reputation beyond reputeMinnal has a reputation beyond reputeMinnal has a reputation beyond reputeMinnal has a reputation beyond repute
UL: 5.38 tb DL: 3.74 tb Ratio: 1.44
My Mood: Fine
Default Re: [BD-50] MANKATHA (2011)- Ayn-1080P - AVC & DTS HD MA - Blu Devil @ TEAM TMR - 01-01-2015

Pls post the full movie bro, Pls post all the folders BDMV, CERTIFICATE, like a BD50 full disc or else no one can't write it to a BD50 disc and also the menu parts and the audio options and chapters will not play properly, Am I correct bro?

Sorry if it hurts you

But it is not a rip and not a full disc, What if I post a DVD9 only the VTS files alone bro?




Reply With Quote
(#9)
Old
Cenanandan Cenanandan is offline
TMR Member
Points: 6,617, Level: 24
Points: 6,617, Level: 24 Points: 6,617, Level: 24 Points: 6,617, Level: 24
Level up: 14%, 433 Points needed
Level up: 14% Level up: 14% Level up: 14%
Activity: 0%
Activity: 0% Activity: 0% Activity: 0%

I proudly released 15 torrents with 68 snatches
 
 
Join Date: Nov 2014
Posts: 1,768
Rep Power: 22
Cenanandan has a brilliant futureCenanandan has a brilliant futureCenanandan has a brilliant futureCenanandan has a brilliant futureCenanandan has a brilliant futureCenanandan has a brilliant futureCenanandan has a brilliant futureCenanandan has a brilliant futureCenanandan has a brilliant futureCenanandan has a brilliant futureCenanandan has a brilliant future
UL: 20.28 gb DL: 7.63 gb Ratio: 2.66
My Mood: Cheerful
Default Re: [BD-50] MANKATHA (2011)- Ayn-1080P - AVC & DTS HD MA - Blu Devil @ TEAM TMR - 01-01-2015

awesome thala movie




Reply With Quote
(#10)
Old
OreJeevan's Avatar
OreJeevan OreJeevan is offline
TMR Member
Points: 9,914, Level: 29
Points: 9,914, Level: 29 Points: 9,914, Level: 29 Points: 9,914, Level: 29
Level up: 94%, 36 Points needed
Level up: 94% Level up: 94% Level up: 94%
Activity: 7.1%
Activity: 7.1% Activity: 7.1% Activity: 7.1%

I proudly released 28 torrents with 751 snatches
 
 
Join Date: Nov 2014
Posts: 835
Rep Power: 15
OreJeevan has much to be proud ofOreJeevan has much to be proud ofOreJeevan has much to be proud ofOreJeevan has much to be proud ofOreJeevan has much to be proud ofOreJeevan has much to be proud ofOreJeevan has much to be proud ofOreJeevan has much to be proud of
UL: 1.97 tb DL: 1.27 tb Ratio: 1.55
My Mood: Relaxed
Hot Topic Re: [BD-50] MANKATHA (2011)- Ayn-1080P - AVC & DTS HD MA - Blu Devil @ TEAM TMR - 01-01-2015

Quote:
Originally Posted by Minnal View Post
Pls post the full movie bro, Pls post all the folders BDMV, CERTIFICATE, like a BD50 full disc or else no one can't write it to a BD50 disc and also the menu parts and the audio options and chapters will not play properly, Am I correct bro?

Sorry if it hurts you

But it is not a rip and not a full disc, What if I post a DVD9 only the VTS files alone bro?
But think in such a way,,that i got this at the time of release thro one of my dear friend at a poor speed of only 256 Kbps D/L Speed...almost 7 days...If you need ,,Please download..If yours is a HDTV or HDTV connected with Bluray Player or those 2 which can access a External HDD ,,,you can surely play the .m2ts file alone... Sorry if i hurt you..!!








Reply With Quote
Reply

Thread Tools
Display Modes

Similar Threads
Thread Thread Starter Forum Replies Last Post
Mankatha (2011) - Bluray - 1080P - FLAC - 6 CH - Esub - HORSS - Team TMR Horss BD/BR - Rips 47 15-07-2018 12:25 PM
Mankatha (2011) 1080p BluRay DTS MA x264 Subs [Team TMR] Sumo MaN BD/BR - Rips 38 13-06-2018 04:21 PM
Mankatha (2011)720p-BlueRay Rip-x264-AC3-5.1-ESub @Rockers@ - Team TMR #@Rockers@# BD/BR - Rips 59 30-05-2018 12:24 PM
Please reseed [BD-50] MANKATHA (2011)- Ayn-1080P - AVC & DTS HD MA - Blu Devil @ TEAM TMR TMR KING Reseed 1 11-04-2015 04:02 AM
Request for Mankatha (2011) 1080p BluRay with DTS-HD-MA untouched! Killer Pacino Request 2 30-11-2014 12:26 PM

Posting Rules
You may not post new threads
You may not post replies
You may not post attachments
You may not edit your posts

BB code is On
Smilies are On
[IMG] code is On
HTML code is Off




Powered by vBulletin® Version 3.8.7
Copyright ©2000 - 2018, vBulletin Solutions, Inc.
vBulletin Skin developed by: vBStyles.com
Ad Management plugin by RedTyger