TAMILMOVIEROCKERS Facebook Official
Ticket Torrents
Go Back   TAMILMOVIEROCKERS > -: Tamil Releases :- > Tamil Songs > New Movie Albums
Reload this Page Kalakalappu 2 (2018) - Sundhar.C in -i Tunes Rip - Tamil - MP3 Songs - CBR - 320 kbps - Team TMR
(#1)
Old
Subbu2000 Subbu2000 is offline
TMR Member
Points: 30,432, Level: 53
Points: 30,432, Level: 53 Points: 30,432, Level: 53 Points: 30,432, Level: 53
Level up: 62%, 418 Points needed
Level up: 62% Level up: 62% Level up: 62%
Activity: 14.3%
Activity: 14.3% Activity: 14.3% Activity: 14.3%

I proudly released 38 torrents with 1327 snatches
 
 
Join Date: Feb 2017
Posts: 4,557
Rep Power: 46
Subbu2000 has a reputation beyond repute
Subbu2000 has a reputation beyond reputeSubbu2000 has a reputation beyond reputeSubbu2000 has a reputation beyond reputeSubbu2000 has a reputation beyond reputeSubbu2000 has a reputation beyond reputeSubbu2000 has a reputation beyond repute
UL: 1.14 tb DL: 9.77 gb Ratio: 119.45
My Mood: Cheeky
MP3 Kalakalappu 2 (2018) - Sundhar.C in -i Tunes Rip - Tamil - MP3 Songs - CBR - 320 kbps - Team TMR - 08-02-2018

Kalakalappu 2 (2018) - Sundhar.C in -i Tunes Rip - Tamil - MP3 Songs - CBR - 320 kbps - Team TMR



MOVIE INFO

Starring: Jiiva, Jai, Shiva, Catherine Tresa, Nikki Galrani
Directed by: Sundar C
Music by: Khushbu Sundar
Produced by: HipHop Thamizha
Country: India
Language: Tamil
Year: 2018



MEDIA INFO

Code:
Kalakalappu 2 (2018) - Sundhar.C in -i Tunes Rip - Tamil - MP3 Songs - CBR - 320 kbps - Team TMR\Karakudi Ilavarasi.mp3
Format                                   : MPEG Audio
File size                                : 10.6 MiB
Duration                                 : 4 min 39 s
Overall bit rate mode                    : Constant
Overall bit rate                         : 320 kb/s
Writing library                          : LAME3.99r

Audio
Format                                   : MPEG Audio
Format version                           : Version 1
Format profile                           : Layer 3
Duration                                 : 4 min 39 s
Bit rate mode                            : Constant
Bit rate                                 : 320 kb/s
Channel(s)                               : 2 channels
Sampling rate                            : 48.0 kHz
Compression mode                         : Lossy
Stream size                              : 10.6 MiB (100%)
Writing library                          : LAME3.99r
Encoding settings                        : -m s -V 4 -q 3 -lowpass 20.5
TRACK INFO

Krishna Mukundha
Artists: Kaushik Krish, Padmalatha, Velmurugan

Pudichiruka illa Pudikalaya
Artists: Hiphop Tamizha, Varun Parandhaman, Rajan Chelliah

Thaarumaaru
Artists: Sanjith Hedge, Sniggy, Hiphop Tamizha

Karakudi Ilavarasi
Artists: Jassie Gift, Sudharshan Ashok

Oru Kuchi Oru Kulfi
Artists: Gana Vinoth, Saravedi Saran
Attached Files
File Type: torrent Kalakalappu 2 (2018) - Sundhar.C in -i Tunes Rip - Tamil - MP3 Songs - CBR - 320 kbps - Team.torrent (2.5 KB, 25 views), size: 44.54 mb, completed: 14
Name Size
Name Completed % Left Uploaded Downloaded Last Announce




The Following 7 Users Say Thank You to Subbu2000 For This Useful Post:

5 Lastest Threads by Subbu2000
Thread Forum Last Poster Replies Views Last Post
Mr Chandramouli (2018) - Gautham Karthik in -... New Movie Albums Karthikeyan007 33 571 25-04-2018 01:47 AM
Nagesh Thiraiyarangam (2018) - WEB HD Rip -720p -... Web HD/ Rips (Free Leech) Thina194 57 910 05-04-2018 05:09 AM
Nagesh Thiraiyarangam (2018) - UNTOUCHED - WEB HD... Web HD/ Rips (Free Leech) Dillikumar 52 1049 05-04-2018 03:29 AM
Kaathadi (2018) - WEB HD Rip - mkv - AC3 5.1 -... Web HD/ Rips (Free Leech) Somuji007 44 1092 30-03-2018 04:48 AM
Padmaavat (2018) - WEB HD - 720p - Tamil - mkv -... Web HD/ Rips (Free Leech) Aurorab 131 1875 27-03-2018 05:21 AM

(#2)
Old
Vallavaan123's Avatar
Vallavaan123 Vallavaan123 is offline
Premium Users
Points: 15,160, Level: 37
Points: 15,160, Level: 37 Points: 15,160, Level: 37 Points: 15,160, Level: 37
Level up: 39%, 490 Points needed
Level up: 39% Level up: 39% Level up: 39%
Activity: 64.3%
Activity: 64.3% Activity: 64.3% Activity: 64.3%

   
Join Date: Oct 2014
Posts: 4,568
Rep Power: 18
Vallavaan123 is a glorious beacon of lightVallavaan123 is a glorious beacon of lightVallavaan123 is a glorious beacon of lightVallavaan123 is a glorious beacon of lightVallavaan123 is a glorious beacon of lightVallavaan123 is a glorious beacon of light
UL: 19.46 tb DL: 499.29 gb Ratio: 39.91
Default 08-02-2018

Thanks fr the good share




Reply With Quote
(#3)
Old
Ganeshpandian's Avatar
Ganeshpandian Ganeshpandian is offline
Releaser
Points: 15,441, Level: 37
Points: 15,441, Level: 37 Points: 15,441, Level: 37 Points: 15,441, Level: 37
Level up: 74%, 209 Points needed
Level up: 74% Level up: 74% Level up: 74%
Activity: 21.4%
Activity: 21.4% Activity: 21.4% Activity: 21.4%

I proudly released 100 torrents with 1088 snatches
 
 
Join Date: Dec 2015
Posts: 1,861
Rep Power: 42
Ganeshpandian has a reputation beyond repute
Ganeshpandian has a reputation beyond reputeGaneshpandian has a reputation beyond reputeGaneshpandian has a reputation beyond reputeGaneshpandian has a reputation beyond reputeGaneshpandian has a reputation beyond reputeGaneshpandian has a reputation beyond repute
UL: 2.40 tb DL: 1.02 tb Ratio: 2.34
My Mood: Cool
Default 08-02-2018

nice share.




Reply With Quote
(#4)
Old
Parav Parav is offline
TMR Member
Points: 6,950, Level: 24
Points: 6,950, Level: 24 Points: 6,950, Level: 24 Points: 6,950, Level: 24
Level up: 80%, 100 Points needed
Level up: 80% Level up: 80% Level up: 80%
Activity: 78.6%
Activity: 78.6% Activity: 78.6% Activity: 78.6%

   
Join Date: Oct 2014
Posts: 1,378
Rep Power: 9
Parav is a jewel in the roughParav is a jewel in the roughParav is a jewel in the roughParav is a jewel in the rough
UL: 5.66 tb DL: 3.30 tb Ratio: 1.71
My Mood: Cool
Default 08-02-2018

Nice release




Reply With Quote
(#5)
Old
Justforcare Justforcare is offline
TMR Member
Points: 2,992, Level: 15
Points: 2,992, Level: 15 Points: 2,992, Level: 15 Points: 2,992, Level: 15
Level up: 81%, 58 Points needed
Level up: 81% Level up: 81% Level up: 81%
Activity: 85.7%
Activity: 85.7% Activity: 85.7% Activity: 85.7%

   
Join Date: Jan 2015
Posts: 1,550
Rep Power: 8
Justforcare will become famous soon enoughJustforcare will become famous soon enough
UL: 2.73 tb DL: 2.66 tb Ratio: 1.03
Default 08-02-2018

Thanks lot




Reply With Quote
(#6)
Old
Simma Simma is offline
TMR Member
Points: 6,617, Level: 24
Points: 6,617, Level: 24 Points: 6,617, Level: 24 Points: 6,617, Level: 24
Level up: 14%, 433 Points needed
Level up: 14% Level up: 14% Level up: 14%
Activity: 7.1%
Activity: 7.1% Activity: 7.1% Activity: 7.1%

   
Join Date: Oct 2014
Posts: 1,377
Rep Power: 10
Simma is just really niceSimma is just really niceSimma is just really niceSimma is just really niceSimma is just really nice
UL: 6.02 tb DL: 427.85 gb Ratio: 14.41
Default 08-02-2018

Thanks for the share.




Reply With Quote
(#7)
Old
MasssBabu's Avatar
MasssBabu MasssBabu is offline
TMR Member
Points: 59,696, Level: 75
Points: 59,696, Level: 75 Points: 59,696, Level: 75 Points: 59,696, Level: 75
Level up: 77%, 354 Points needed
Level up: 77% Level up: 77% Level up: 77%
Activity: 7.1%
Activity: 7.1% Activity: 7.1% Activity: 7.1%

I proudly released 132 torrents with 3571 snatches
 
 
Join Date: Sep 2015
Posts: 10,331
Rep Power: 83
MasssBabu has a reputation beyond repute
MasssBabu has a reputation beyond reputeMasssBabu has a reputation beyond reputeMasssBabu has a reputation beyond reputeMasssBabu has a reputation beyond reputeMasssBabu has a reputation beyond reputeMasssBabu has a reputation beyond reputeMasssBabu has a reputation beyond reputeMasssBabu has a reputation beyond reputeMasssBabu has a reputation beyond reputeMasssBabu has a reputation beyond reputeMasssBabu has a reputation beyond reputeMasssBabu has a reputation beyond reputeMasssBabu has a reputation beyond reputeMasssBabu has a reputation beyond reputeMasssBabu has a reputation beyond repute
UL: 3.97 tb DL: 217.23 gb Ratio: 18.72
My Mood: Cool
Default 08-02-2018

Thanks for the good share




Reply With Quote
(#8)
Old
Balaji0818 Balaji0818 is offline
TMR Member
Points: 1,956, Level: 12
Points: 1,956, Level: 12 Points: 1,956, Level: 12 Points: 1,956, Level: 12
Level up: 36%, 194 Points needed
Level up: 36% Level up: 36% Level up: 36%
Activity: 14.3%
Activity: 14.3% Activity: 14.3% Activity: 14.3%

   
Join Date: Jan 2016
Posts: 506
Rep Power: 5
Balaji0818 has a spectacular aura aboutBalaji0818 has a spectacular aura about
UL: 844.76 gb DL: 905.16 gb Ratio: 0.93
My Mood: Amazed
Default 08-02-2018

thankssssssss




Reply With Quote
(#9)
Old
Prince Prince is offline
TMR Member
Points: 1,709, Level: 11
Points: 1,709, Level: 11 Points: 1,709, Level: 11 Points: 1,709, Level: 11
Level up: 53%, 141 Points needed
Level up: 53% Level up: 53% Level up: 53%
Activity: 16.7%
Activity: 16.7% Activity: 16.7% Activity: 16.7%

   
Join Date: Oct 2014
Posts: 337
Rep Power: 4
Prince will become famous soon enough
UL: 795.97 gb DL: 864.79 gb Ratio: 0.92
Default 08-02-2018

Thanks fr the good share




Reply With Quote
(#10)
Old
raj&raj raj&raj is offline
TMR Member
Points: 1,445, Level: 10
Points: 1,445, Level: 10 Points: 1,445, Level: 10 Points: 1,445, Level: 10
Level up: 48%, 105 Points needed
Level up: 48% Level up: 48% Level up: 48%
Activity: 14.3%
Activity: 14.3% Activity: 14.3% Activity: 14.3%

   
Join Date: Mar 2016
Posts: 204
Rep Power: 4
raj&raj has a spectacular aura aboutraj&raj has a spectacular aura about
UL: 7.32 gb DL: 9.24 gb Ratio: 0.79
Default 09-02-2018

Quote:
Originally Posted by Subbu2000 View Post
Kalakalappu 2 (2018) - Sundhar.C in -i Tunes Rip - Tamil - MP3 Songs - CBR - 320 kbps - Team TMR



MOVIE INFO

Starring: Jiiva, Jai, Shiva, Catherine Tresa, Nikki Galrani
Directed by: Sundar C
Music by: Khushbu Sundar
Produced by: HipHop Thamizha
Country: India
Language: Tamil
Year: 2018



MEDIA INFO

Code:
Kalakalappu 2 (2018) - Sundhar.C in -i Tunes Rip - Tamil - MP3 Songs - CBR - 320 kbps - Team TMR\Karakudi Ilavarasi.mp3
Format                                   : MPEG Audio
File size                                : 10.6 MiB
Duration                                 : 4 min 39 s
Overall bit rate mode                    : Constant
Overall bit rate                         : 320 kb/s
Writing library                          : LAME3.99r

Audio
Format                                   : MPEG Audio
Format version                           : Version 1
Format profile                           : Layer 3
Duration                                 : 4 min 39 s
Bit rate mode                            : Constant
Bit rate                                 : 320 kb/s
Channel(s)                               : 2 channels
Sampling rate                            : 48.0 kHz
Compression mode                         : Lossy
Stream size                              : 10.6 MiB (100%)
Writing library                          : LAME3.99r
Encoding settings                        : -m s -V 4 -q 3 -lowpass 20.5
TRACK INFO

Krishna Mukundha
Artists: Kaushik Krish, Padmalatha, Velmurugan

Pudichiruka illa Pudikalaya
Artists: Hiphop Tamizha, Varun Parandhaman, Rajan Chelliah

Thaarumaaru
Artists: Sanjith Hedge, Sniggy, Hiphop Tamizha

Karakudi Ilavarasi
Artists: Jassie Gift, Sudharshan Ashok

Oru Kuchi Oru Kulfi
Artists: Gana Vinoth, Saravedi Saran
Sema Songs




Reply With Quote
Reply

Thread Tools
Display Modes

Similar Threads
Thread Thread Starter Forum Replies Last Post
Tik Tik Tik (2018) - Jayam Ravi in - Tamil - MP3 Songs - CBR - 320 kbps - Team TMR Subbu2000 New Movie Albums 48 2 Weeks Ago 09:09 AM
Irumbu Thirai (2018) - Vishal in - Tamil - MP3 Songs - CBR - 320 kbps - Team TMR Subbu2000 New Movie Albums 29 06-05-2018 10:23 AM
Savarakathi (2018) - Director Ram in - Tamil - MP3 Songs - CBR - 320 kbps - Team TMR Subbu2000 New Movie Albums 18 06-05-2018 10:19 AM
Thaana Serndha Koottam (2018) - Suriya in - Tamil - MP3 Songs - CBR - 320 kbps - Team TMR Subbu2000 New Movie Albums 42 23-04-2018 01:50 AM
Pakka (2018) - Vikram Prabhu in - Tamil - MP3 Songs - CBR - 320 kbps - Team TMR Subbu2000 New Movie Albums 26 15-02-2018 05:12 PM

Posting Rules
You may not post new threads
You may not post replies
You may not post attachments
You may not edit your posts

BB code is On
Smilies are On
[IMG] code is On
HTML code is Off




Powered by vBulletin® Version 3.8.7
Copyright ©2000 - 2018, vBulletin Solutions, Inc.
vBulletin Skin developed by: vBStyles.com
Ad Management plugin by RedTyger