TAMILMOVIEROCKERS Facebook Official
Ticket Torrents
Go Back   TAMILMOVIEROCKERS > -: Other Releases :- > Telugu Releases - (Free Leech Except DVD-R) > Web HD/ Rips
Reload this Page [WebDL] Bus Stop (2012) Untouched 1080P - 2.49 GB - TSB
Reply
 
Thread Tools Display Modes
(#21)
Old
Gopichowdary111 Gopichowdary111 is offline
TMR Member
Points: 196, Level: 2
Points: 196, Level: 2 Points: 196, Level: 2 Points: 196, Level: 2
Level up: 46%, 54 Points needed
Level up: 46% Level up: 46% Level up: 46%
Activity: 0%
Activity: 0% Activity: 0% Activity: 0%

   
Join Date: Feb 2018
Posts: 21
Rep Power: 1
Gopichowdary111 is an unknown quantity at this point
UL: 5.00 gb DL: 0.00 b Ratio: -
Default 21st-April-2018

Cool, thanks




Reply With Quote
(#22)
Old
LuckyMAN LuckyMAN is offline
TMR Member
Points: 50, Level: 1
Points: 50, Level: 1 Points: 50, Level: 1 Points: 50, Level: 1
Level up: 33%, 100 Points needed
Level up: 33% Level up: 33% Level up: 33%
Activity: 0%
Activity: 0% Activity: 0% Activity: 0%

   
Join Date: May 2018
Posts: 12
Rep Power: 1
LuckyMAN is an unknown quantity at this point
UL: 5.00 gb DL: 0.00 b Ratio: -
My Mood: Asleep
Default 22nd-May-2018

Quote:
Originally Posted by Tsai_babu View Post



[WebDL] Bus Stop (2012) Untouched 1080P - 2.49 GB - TSB




|| Media Information ||
General
Complete name : \[WebDL] Bus Stop (2012) Untouched 1080P - 2.49 GB - TSB.MP4
Format : MPEG-4
Format profile : Base Media
Codec ID : isom (isom/iso2/avc1/mp41)
File size : 2.50 GiB
Duration : 2 h 26 min
Overall bit rate mode : Variable
Overall bit rate : 2 446 kb/s
Encoded date : UTC 2015-10-01 01:07:49
Tagged date : UTC 2015-10-01 01:07:49

Video
ID : 1
Format : AVC
Format/Info : Advanced Video Codec
Format profile : High@L4
Format settings, CABAC : Yes
Format settings, ReFrames : 3 frames
Codec ID : avc1
Codec ID/Info : Advanced Video Coding
Duration : 2 h 26 min
Bit rate : 2 316 kb/s
Width : 1 920 pixels
Height : 1 080 pixels
Display aspect ratio : 16:9
Frame rate mode : Variable
Frame rate : 23.976 (24000/1001) FPS
Minimum frame rate : 23.974 FPS
Maximum frame rate : 23.981 FPS
Color space : YUV
Chroma subsampling : 4:2:0
Bit depth : 8 bits
Scan type : Progressive
Bits/(Pixel*Frame) : 0.047
Stream size : 2.36 GiB (95%)
Encoded date : UTC 2015-10-01 01:07:49
Tagged date : UTC 2015-10-01 01:07:49

Audio
ID : 2
Format : AAC
Format/Info : Advanced Audio Codec
Format profile : LC
Codec ID : 40
Duration : 2 h 26 min
Bit rate mode : Variable
Bit rate : 126 kb/s
Channel(s) : 2 channels
Channel positions : Front: L R
Sampling rate : 44.1 kHz
Frame rate : 43.066 FPS (1024 spf)
Compression mode : Lossy
Stream size : 131 MiB (5%)
Default : Yes
Alternate group : 1
Encoded date : UTC 2015-09-30 14:09:39
Tagged date : UTC 2015-09-30 14:09:39


|| SCREENSHOTS ||

( Click On Image To View The Full Size )




|| Seeding Request ||


Kindly Seed As Much As You Can After Download Due To Slow Internet Connection OR Limited High Speed Connection,
I Will Be Very Happy If Any Seedbox Holder Help Me In Seeding For 5 Days. Thanks In Advance


|| Special Thanks ||


|| Mr. kurupam || Mr. tkse || Mr. J4gg3r ||
And Thanks To All Those Who Are Seeding My Threads.


This Release Of Movie Bus Stop (2012) In 1080P Is - Exclusive By TSB, Especial Thanks a Lot To kurupam

Please share with proper credit, if you are sharing in other sites!










Superb Share Thanks For Sharing With Us




Reply With Quote
(#23)
Old
Kiransvu67 Kiransvu67 is offline
TMR Member
Points: 4, Level: 1
Points: 4, Level: 1 Points: 4, Level: 1 Points: 4, Level: 1
Level up: 7%, 46 Points needed
Level up: 7% Level up: 7% Level up: 7%
Activity: 0%
Activity: 0% Activity: 0% Activity: 0%
   
Join Date: May 2018
Posts: 4
Rep Power: 1
Kiransvu67 is an unknown quantity at this point
UL: 5.00 gb DL: 0.00 b Ratio: -
Default 22nd-May-2018

ggggggggggggggggggggood




Reply With Quote
(#24)
Old
Manuwalde Manuwalde is offline
TMR Member
Points: 12,001, Level: 33
Points: 12,001, Level: 33 Points: 12,001, Level: 33 Points: 12,001, Level: 33
Level up: 8%, 649 Points needed
Level up: 8% Level up: 8% Level up: 8%
Activity: 100.0%
Activity: 100.0% Activity: 100.0% Activity: 100.0%

I proudly released 2 torrents with 6 snatches
 
 
Join Date: Apr 2018
Posts: 5,973
Rep Power: 13
Manuwalde has a spectacular aura aboutManuwalde has a spectacular aura about
UL: 398.30 gb DL: 125.69 gb Ratio: 3.17
My Mood: Devilish
Default 30th-June-2018

Thank you very much




Reply With Quote
(#25)
Old
Tmr2016 Tmr2016 is offline
TMR Member
Points: 883, Level: 7
Points: 883, Level: 7 Points: 883, Level: 7 Points: 883, Level: 7
Level up: 67%, 67 Points needed
Level up: 67% Level up: 67% Level up: 67%
Activity: 0%
Activity: 0% Activity: 0% Activity: 0%

   
Join Date: Mar 2016
Posts: 32
Rep Power: 3
Tmr2016 is an unknown quantity at this point
UL: 5.35 gb DL: 7.56 gb Ratio: 0.71
Default 19th-July-2018

thank you very much for sharing




Reply

Thread Tools
Display Modes

Similar Threads
Thread Thread Starter Forum Replies Last Post
[WebDL] Rajadhi Raja (2016) Untouched 1080P - 2.86 GB - TSB Tsai_babu Web HD/ Rips 19 8th-January-2018 03:10 AM
[WebDL] Rajadhi Raja (2016) Untouched 480P - 1.00 GB - TSB Tsai_babu Web HD/ Rips 20 8th-January-2018 03:05 AM
[WebDL] Killing Veerappan (2016) Untouched 480P - 1.05 GB - TSB Tsai_babu Web HD/ Rips 30 7th-January-2018 01:05 AM
[WebDL] Punnami Rathri (2016) Untouched 720P - 1.92 GB - TSB Tsai_babu Web HD/ Rips 25 4th-January-2018 01:58 AM
Need Seeding Help For My Latest Release: [WebDL] Killing Veerappan (2016) Untouched 480P - 1.05 GB - TSB Tsai_babu Seeding Help 0 24th-March-2016 07:29 AM

Posting Rules
You may not post new threads
You may not post replies
You may not post attachments
You may not edit your posts

BB code is On
Smilies are On
[IMG] code is On
HTML code is Off




Powered by vBulletin® Version 3.8.7
Copyright ©2000 - 2018, vBulletin Solutions, Inc.
vBulletin Skin developed by: vBStyles.com
Ad Management plugin by RedTyger