TAMILMOVIEROCKERS Facebook Official
Ticket Torrents
Go Back   TAMILMOVIEROCKERS > -: Tamil Releases :- > Tamil DVD Rips (x2 Ratio Upload) > DVD Upscales
Reload this Page Anniyan (2005) Tamil 720p DVDRip x264 AC3 DD 5.1 Chaps
Reply
 
Thread Tools Display Modes
(#1)
Old
AravindNandu's Avatar
AravindNandu AravindNandu is offline
TMR Member
Points: 10,546, Level: 30
Points: 10,546, Level: 30 Points: 10,546, Level: 30 Points: 10,546, Level: 30
Level up: 99%, 4 Points needed
Level up: 99% Level up: 99% Level up: 99%
Activity: 66.7%
Activity: 66.7% Activity: 66.7% Activity: 66.7%

I proudly released 52 torrents with 832 snatches
 
 
Join Date: Nov 2014
Posts: 393
Rep Power: 28
AravindNandu has a reputation beyond reputeAravindNandu has a reputation beyond reputeAravindNandu has a reputation beyond reputeAravindNandu has a reputation beyond reputeAravindNandu has a reputation beyond reputeAravindNandu has a reputation beyond reputeAravindNandu has a reputation beyond reputeAravindNandu has a reputation beyond reputeAravindNandu has a reputation beyond reputeAravindNandu has a reputation beyond reputeAravindNandu has a reputation beyond reputeAravindNandu has a reputation beyond reputeAravindNandu has a reputation beyond repute
UL: 162.33 gb DL: 165.46 gb Ratio: 0.98
My Mood: Happy
DVDRip Anniyan (2005) Tamil 720p DVDRip x264 AC3 DD 5.1 Chaps - 13-08-2018

Anniyan (2005) Tamil 720p DVDRip x264 AC3 DD 5.1 Chaps



-Rip Info-

Video - x264 (1280x544)

Audio - AC3 Dolby Digital 5.1 Untouched

Subtitles - N/A

Chapters - Included




-Screenshots-

Click to enlarge



-MediaInfo-

Code:
Format                      : Matroska
Format version              : Version 4 / Version 2
File size                   : 3.11 GiB
Duration                    : 3 h 1 min
Overall bit rate            : 2 450 kb/s
Encoded date                : UTC 2018-08-13 14:05:55
Writing application         : mkvmerge v25.0.0 ('Prog Noir') 32-bit
Writing library             : libebml v1.3.6 + libmatroska v1.4.9

Video
ID                          : 1
Format                      : AVC
Format/Info                 : Advanced Video Codec
Format profile              : High@L4.1
Format settings             : CABAC / 4 Ref Frames
Format settings, CABAC      : Yes
Format settings, ReFrames   : 4 frames
Codec ID                    : V_MPEG4/ISO/AVC
Duration                    : 3 h 1 min
Bit rate                    : 2 000 kb/s
Width                       : 1 280 pixels
Height                      : 544 pixels
Display aspect ratio        : 2.35:1
Frame rate mode             : Constant
Frame rate                  : 23.976 (24000/1001) FPS
Color space                 : YUV
Chroma subsampling          : 4:2:0
Bit depth                   : 8 bits
Scan type                   : Progressive
Bits/(Pixel*Frame)          : 0.120
Stream size                 : 2.54 GiB (82%)
Writing library             : x264 core 155 r2901 7d0ff22
Default                     : Yes
Forced                      : No

Audio
ID                          : 2
Format                      : AC-3
Format/Info                 : Audio Coding 3
Codec ID                    : A_AC3
Duration                    : 3 h 1 min
Bit rate mode               : Constant
Bit rate                    : 448 kb/s
Channel(s)                  : 6 channels
Channel positions           : Front: L C R, Side: L R, LFE
Sampling rate               : 48.0 kHz
Frame rate                  : 31.250 FPS (1536 SPF)
Bit depth                   : 16 bits
Compression mode            : Lossy
Delay relative to video     : 216 ms
Stream size                 : 582 MiB (18%)
Service kind                : Complete Main
Default                     : Yes
Forced                      : No

Menu
00:00:00.000                : :Chapter 01
00:08:48.701                : :Chapter 02
00:14:14.201                : :Chapter 03
00:23:43.968                : :Chapter 04
00:32:54.702                : :Chapter 05
00:49:36.002                : :Chapter 06
00:54:17.169                : :Chapter 07
00:57:48.736                : :Chapter 08
01:06:02.903                : :Chapter 09
01:07:49.704                : :Chapter 10
01:13:26.004                : :Chapter 11
01:18:37.838                : :Chapter 12
01:30:04.039                : :Chapter 13
01:36:51.773                : :Chapter 14
01:40:06.674                : :Chapter 15
01:42:27.874                : :Chapter 16
01:47:51.575                : :Chapter 17
02:00:40.975                : :Chapter 18
02:09:32.609                : :Chapter 19
02:16:57.843                : :Chapter 20
02:25:55.711                : :Chapter 21
02:31:30.711                : :Chapter 22
02:40:48.612                : :Chapter 23
02:52:09.612                : :Chapter 24
02:58:47.480                : :Chapter 25
Source - Russian DVD9 - TEAM TMR

Ripped and encoded by MyRipsRG

Please comment on the quality and seed back after download
Attached Files
File Type: torrent Anniyan (2005) Tamil 720p DVDRip x264 AC3 DD 5.1 Chaps.torrent (15.8 KB, 91 views), size: 3.11 gb, seeders: 1, completed: 30
Name Size
Name Completed % Left Uploaded Downloaded Last Announce

Last edited by AravindNandu; 13-08-2018 at 05:24 PM.




The Following 18 Users Say Thank You to AravindNandu For This Useful Post:

5 Lastest Threads by AravindNandu
Thread Forum Last Poster Replies Views Last Post
Thalapathi(1991) - DVD9 Broadway Request AravindNandu 0 27 13-11-2018 05:06 AM
Theevandi (2018) 480p DVDRip x264 AAC ESubs -... Free Leech Poisonrock 7 229 10-11-2018 02:53 AM
96 (2018) Tamil 720p HDTVRip x264 AAC - 1.1GB -... Web HD/ Rips (Free Leech) Rsundarsoft 5 221 07-11-2018 03:32 PM
Ratsasan (2018) 720p WEB-HDRip x264 AAC5.1 ESubs... Web HD/ Rips (Free Leech) P_anuram 14 375 04-11-2018 03:17 AM
Pariyerum Perumal (2018) 720p WEB-HDRip x264... Web HD/ Rips (Free Leech) Indian76 13 404 26-10-2018 05:29 PM

(#2)
Old
Aneesh5000 Aneesh5000 is offline
TMR Member
Points: 64, Level: 1
Points: 64, Level: 1 Points: 64, Level: 1 Points: 64, Level: 1
Level up: 14%, 86 Points needed
Level up: 14% Level up: 14% Level up: 14%
Activity: 0%
Activity: 0% Activity: 0% Activity: 0%

   
Join Date: Jul 2018
Posts: 13
Rep Power: 1
Aneesh5000 is an unknown quantity at this point
UL: 5.43 gb DL: 5.52 gb Ratio: 0.98
Default 13-08-2018

Good Share




Reply With Quote
(#3)
Old
Reddy2308 Reddy2308 is offline
TMR Member
Points: 547, Level: 5
Points: 547, Level: 5 Points: 547, Level: 5 Points: 547, Level: 5
Level up: 97%, 3 Points needed
Level up: 97% Level up: 97% Level up: 97%
Activity: 0%
Activity: 0% Activity: 0% Activity: 0%

   
Join Date: Feb 2017
Posts: 39
Rep Power: 2
Reddy2308 is an unknown quantity at this point
UL: 8.19 gb DL: 10.58 gb Ratio: 0.77
Default 13-08-2018

Thank you very much




Reply With Quote
(#4)
Old
Vallavaan123's Avatar
Vallavaan123 Vallavaan123 is offline
Premium Users
Points: 15,275, Level: 37
Points: 15,275, Level: 37 Points: 15,275, Level: 37 Points: 15,275, Level: 37
Level up: 54%, 375 Points needed
Level up: 54% Level up: 54% Level up: 54%
Activity: 33.3%
Activity: 33.3% Activity: 33.3% Activity: 33.3%

   
Join Date: Oct 2014
Posts: 4,589
Rep Power: 19
Vallavaan123 is a glorious beacon of lightVallavaan123 is a glorious beacon of lightVallavaan123 is a glorious beacon of lightVallavaan123 is a glorious beacon of lightVallavaan123 is a glorious beacon of lightVallavaan123 is a glorious beacon of light
UL: 19.61 tb DL: 499.29 gb Ratio: 40.21
Default 13-08-2018

good share




Reply With Quote
(#5)
Old
Aneesh5000 Aneesh5000 is offline
TMR Member
Points: 64, Level: 1
Points: 64, Level: 1 Points: 64, Level: 1 Points: 64, Level: 1
Level up: 14%, 86 Points needed
Level up: 14% Level up: 14% Level up: 14%
Activity: 0%
Activity: 0% Activity: 0% Activity: 0%

   
Join Date: Jul 2018
Posts: 13
Rep Power: 1
Aneesh5000 is an unknown quantity at this point
UL: 5.43 gb DL: 5.52 gb Ratio: 0.98
Default 13-08-2018

Plz Seed Bro




Reply With Quote
(#6)
Old
Anonymousww945 Anonymousww945 is offline
TMR Member
Points: 556, Level: 6
Points: 556, Level: 6 Points: 556, Level: 6 Points: 556, Level: 6
Level up: 3%, 194 Points needed
Level up: 3% Level up: 3% Level up: 3%
Activity: 0%
Activity: 0% Activity: 0% Activity: 0%

   
Join Date: Sep 2017
Posts: 63
Rep Power: 2
Anonymousww945 is an unknown quantity at this point
UL: 9.84 gb DL: 8.37 gb Ratio: 1.18
Default 13-08-2018

Quote:
Originally Posted by AravindNandu View Post
Anniyan (2005) Tamil 720p DVDRip x264 AC3 DD 5.1 Chaps



-Rip Info-

Video - x264 (1280x544)

Audio - AC3 Dolby Digital 5.1 Untouched

Subtitles - N/A

Chapters - Included




-Screenshots-

Click to enlarge



-MediaInfo-

Code:
Format                      : Matroska
Format version              : Version 4 / Version 2
File size                   : 3.11 GiB
Duration                    : 3 h 1 min
Overall bit rate            : 2 450 kb/s
Encoded date                : UTC 2018-08-13 14:05:55
Writing application         : mkvmerge v25.0.0 ('Prog Noir') 32-bit
Writing library             : libebml v1.3.6 + libmatroska v1.4.9

Video
ID                          : 1
Format                      : AVC
Format/Info                 : Advanced Video Codec
Format profile              : High@L4.1
Format settings             : CABAC / 4 Ref Frames
Format settings, CABAC      : Yes
Format settings, ReFrames   : 4 frames
Codec ID                    : V_MPEG4/ISO/AVC
Duration                    : 3 h 1 min
Bit rate                    : 2 000 kb/s
Width                       : 1 280 pixels
Height                      : 544 pixels
Display aspect ratio        : 2.35:1
Frame rate mode             : Constant
Frame rate                  : 23.976 (24000/1001) FPS
Color space                 : YUV
Chroma subsampling          : 4:2:0
Bit depth                   : 8 bits
Scan type                   : Progressive
Bits/(Pixel*Frame)          : 0.120
Stream size                 : 2.54 GiB (82%)
Writing library             : x264 core 155 r2901 7d0ff22
Default                     : Yes
Forced                      : No

Audio
ID                          : 2
Format                      : AC-3
Format/Info                 : Audio Coding 3
Codec ID                    : A_AC3
Duration                    : 3 h 1 min
Bit rate mode               : Constant
Bit rate                    : 448 kb/s
Channel(s)                  : 6 channels
Channel positions           : Front: L C R, Side: L R, LFE
Sampling rate               : 48.0 kHz
Frame rate                  : 31.250 FPS (1536 SPF)
Bit depth                   : 16 bits
Compression mode            : Lossy
Delay relative to video     : 216 ms
Stream size                 : 582 MiB (18%)
Service kind                : Complete Main
Default                     : Yes
Forced                      : No

Menu
00:00:00.000                : :Chapter 01
00:08:48.701                : :Chapter 02
00:14:14.201                : :Chapter 03
00:23:43.968                : :Chapter 04
00:32:54.702                : :Chapter 05
00:49:36.002                : :Chapter 06
00:54:17.169                : :Chapter 07
00:57:48.736                : :Chapter 08
01:06:02.903                : :Chapter 09
01:07:49.704                : :Chapter 10
01:13:26.004                : :Chapter 11
01:18:37.838                : :Chapter 12
01:30:04.039                : :Chapter 13
01:36:51.773                : :Chapter 14
01:40:06.674                : :Chapter 15
01:42:27.874                : :Chapter 16
01:47:51.575                : :Chapter 17
02:00:40.975                : :Chapter 18
02:09:32.609                : :Chapter 19
02:16:57.843                : :Chapter 20
02:25:55.711                : :Chapter 21
02:31:30.711                : :Chapter 22
02:40:48.612                : :Chapter 23
02:52:09.612                : :Chapter 24
02:58:47.480                : :Chapter 25
Source - Russian DVD9 - TEAM TMR

Ripped and encoded by MyRipsRG

Please comment on the quality and seed back after download
Thank you




Reply With Quote
(#7)
Old
Suresh2020@TMR's Avatar
Suresh2020@TMR Suresh2020@TMR is online now
Quality Releaser
Points: 33,671, Level: 56
Points: 33,671, Level: 56 Points: 33,671, Level: 56 Points: 33,671, Level: 56
Level up: 52%, 579 Points needed
Level up: 52% Level up: 52% Level up: 52%
Activity: 99.6%
Activity: 99.6% Activity: 99.6% Activity: 99.6%

I proudly released 186 torrents with 3212 snatches
 
 
Join Date: Oct 2015
Posts: 3,624
Rep Power: 52
Suresh2020@TMR has a reputation beyond repute
Suresh2020@TMR has a reputation beyond reputeSuresh2020@TMR has a reputation beyond reputeSuresh2020@TMR has a reputation beyond reputeSuresh2020@TMR has a reputation beyond reputeSuresh2020@TMR has a reputation beyond reputeSuresh2020@TMR has a reputation beyond reputeSuresh2020@TMR has a reputation beyond reputeSuresh2020@TMR has a reputation beyond reputeSuresh2020@TMR has a reputation beyond repute
UL: 3.59 tb DL: 2.11 tb Ratio: 1.70
My Mood: Angelic
Default 13-08-2018

Good share...




DVD9 Titles Available For Reseed
http://www.tamilmovierockers.net/forums/showpost.php?p=62984&postcount=5




Reply With Quote
(#8)
Old
SrKFaN SrKFaN is offline
The Media Group
Points: 4,039, Level: 18
Points: 4,039, Level: 18 Points: 4,039, Level: 18 Points: 4,039, Level: 18
Level up: 48%, 211 Points needed
Level up: 48% Level up: 48% Level up: 48%
Activity: 0%
Activity: 0% Activity: 0% Activity: 0%

I proudly released 24 torrents with 393 snatches
 
 
Join Date: Sep 2015
Posts: 174
Rep Power: 12
SrKFaN is a splendid one to beholdSrKFaN is a splendid one to beholdSrKFaN is a splendid one to beholdSrKFaN is a splendid one to beholdSrKFaN is a splendid one to beholdSrKFaN is a splendid one to beholdSrKFaN is a splendid one to behold
UL: 6.05 tb DL: 44.77 gb Ratio: 138.50
Default 13-08-2018

Thanks for the share




Reply With Quote
(#9)
Old
Tamilselvam Tamilselvam is offline
TMR Member
Points: 656, Level: 6
Points: 656, Level: 6 Points: 656, Level: 6 Points: 656, Level: 6
Level up: 53%, 94 Points needed
Level up: 53% Level up: 53% Level up: 53%
Activity: 0%
Activity: 0% Activity: 0% Activity: 0%

   
Join Date: Feb 2017
Posts: 11
Rep Power: 2
Tamilselvam is an unknown quantity at this point
UL: 5.01 gb DL: 6.34 gb Ratio: 0.79
Default 13-08-2018

Thanks for share




Reply With Quote
(#10)
Old
Hariprasath.007 Hariprasath.007 is offline
TMR Member
Points: 416, Level: 4
Points: 416, Level: 4 Points: 416, Level: 4 Points: 416, Level: 4
Level up: 66%, 34 Points needed
Level up: 66% Level up: 66% Level up: 66%
Activity: 0%
Activity: 0% Activity: 0% Activity: 0%

   
Join Date: Nov 2017
Posts: 60
Rep Power: 1
Hariprasath.007 is an unknown quantity at this point
UL: 5.00 gb DL: 6.60 gb Ratio: 0.76
Default 13-08-2018

suber bro




Reply With Quote
Reply

Thread Tools
Display Modes

Similar Threads
Thread Thread Starter Forum Replies Last Post
Iruvar (1997) Tamil 720p API DVDRip x264 AC3 DD 5.1 ESubs Chaps AravindNandu DVD Upscales 79 1 Day Ago 09:11 PM
Thirupaachi (2005) - Tamil - AYN DVDRip - 720p - x264 - DTS - ESubs - Team TMR J4gg3r DVD Upscales 115 4 Weeks Ago 05:46 PM
HeyRam (Hey Ram) (2000) Tamil 720p DVDRip x264 AC3 DD5.1 ESubs Chaps AravindNandu DVD Upscales 72 03-09-2018 10:21 AM
Sachein (2005) Tamil 720p DVDRip x264 AC3 DD 5.1 ESubs Chaps AravindNandu DVD Upscales 64 18-08-2018 03:37 AM
Anniyan - 2005 - Tamil - Ayn DVDRip - 720p - x264 - AAC - MyRips AravindNandu DVD Upscales 68 13-08-2018 02:54 PM

Posting Rules
You may not post new threads
You may not post replies
You may not post attachments
You may not edit your posts

BB code is On
Smilies are On
[IMG] code is On
HTML code is Off




Powered by vBulletin® Version 3.8.7
Copyright ©2000 - 2018, vBulletin Solutions, Inc.
vBulletin Skin developed by: vBStyles.com
Ad Management plugin by RedTyger