TAMILMOVIEROCKERS Facebook Official
Ticket Torrents
Go Back   TAMILMOVIEROCKERS > -: Request Section :- > Request
Reload this Page Top 50 songs of A R Rehman Pyramid BD25
Request One can raise a request for movie here

Closed Thread
 
Thread Tools Display Modes
(#1)
Old
Minnal's Avatar
Minnal Minnal is offline
Quality Releaser
Points: 37,339, Level: 59
Points: 37,339, Level: 59 Points: 37,339, Level: 59 Points: 37,339, Level: 59
Level up: 58%, 511 Points needed
Level up: 58% Level up: 58% Level up: 58%
Activity: 0%
Activity: 0% Activity: 0% Activity: 0%

I proudly released 137 torrents with 1878 snatches
 
 
Join Date: Oct 2014
Posts: 4,877
Rep Power: 49
Minnal has a reputation beyond repute
Minnal has a reputation beyond reputeMinnal has a reputation beyond reputeMinnal has a reputation beyond reputeMinnal has a reputation beyond reputeMinnal has a reputation beyond reputeMinnal has a reputation beyond repute
UL: 5.77 tb DL: 3.74 tb Ratio: 1.54
My Mood: Fine
Bray Top 50 songs of A R Rehman Pyramid BD25 - 06-10-2014

If some one have the Top 50 Songs of A R Rehman Pyramid Bluray 25 Please release it





5 Lastest Threads by Minnal
Thread Forum Last Poster Replies Views Last Post
Kaala Ultra Records DTS DVD9 Request Minnal 0 47 11-11-2018 06:16 AM
Reseed Vaaranam Aayiram [2008] - Lossless - [WAV]... Reseed Minnal 0 63 26-10-2018 04:32 PM
Sketch DVD9 Request Minnal 0 77 24-10-2018 08:47 AM
Aruvi DVD9 Request DaZZleR 2 134 24-10-2018 08:45 AM
Gulebagavali DVD9 Request Minnal 0 73 24-10-2018 08:43 AM

(#2)
Old
T@mTMR
Guest
   
Posts: n/a
UL: 0.00 kb DL: 0.00 kb Ratio: -
Default Re: Top 50 songs of A R Rehman Pyramid BD25 - 08-10-2014

I had this : Top.50.Songs.of.A.R.Rahman.Tamil.Brrip.1080P.AVC.A C.3.Horss.Team TMR

If U want, I can release this.

Quote:

Complete name : Top.50.Songs.of.A.R.Rahman.Tamil.Brrip.1080P.AVC.A C.3.Horss.Team TMR.mkv
Format : Matroska
Format version : Version 4 / Version 2
File size : 7.33 GiB
Duration : 4h 8mn
Overall bit rate : 4 227 Kbps
Movie name : Horss : RippeR, EncodeR and Uploader @ TeamTMR
Encoded date : UTC 2013-07-24 14:24:07
Writing application : mkvmerge v6.2.0 ('Promised Land') built on Apr 28 2013 12:22:01
Writing library : libebml v1.3.0 + libmatroska v1.4.0

Video
ID : 1
Format : AVC
Format/Info : Advanced Video Codec
Format profile : Main@L5.1
Format settings, CABAC : Yes
Format settings, ReFrames : 2 frames
Codec ID : V_MPEG4/ISO/AVC
Duration : 4h 8mn
Bit rate : 3 919 Kbps
Width : 1 920 pixels
Height : 1 080 pixels
Display aspect ratio : 16:9
Frame rate mode : Constant
Frame rate : 29.970 fps
Color space : YUV
Chroma subsampling : 4:2:0
Bit depth : 8 bits
Scan type : Progressive
Bits/(Pixel*Frame) : 0.063
Stream size : 6.79 GiB (93%)
Title : Top.50.Songs.of.A.R.Rahman.Tamil.Brrip.1080P.AVC.A C.3.Horss. Team TMR
Language : Tamil
Default : Yes
Forced : No

Audio
ID : 2
Format : AC-3
Format/Info : Audio Coding 3
Mode extension : CM (complete main)
Format settings, Endianness : Big
Codec ID : A_AC3
Duration : 4h 8mn
Bit rate mode : Constant
Bit rate : 224 Kbps
Channel(s) : 6 channels
Channel positions : Front: L C R, Side: L R, LFE
Sampling rate : 48.0 KHz
Bit depth : 16 bits
Compression mode : Lossy
Stream size : 398 MiB (5%)
Title : Top.50.Songs.of.A.R.Rahman.Tamil.Brrip.1080P.AVC.A C.3.Horss. Team TMR
Language : Tamil
Default : Yes
Forced : No





(#3)
Old
Minnal's Avatar
Minnal Minnal is offline
Quality Releaser
Points: 37,339, Level: 59
Points: 37,339, Level: 59 Points: 37,339, Level: 59 Points: 37,339, Level: 59
Level up: 58%, 511 Points needed
Level up: 58% Level up: 58% Level up: 58%
Activity: 0%
Activity: 0% Activity: 0% Activity: 0%

I proudly released 137 torrents with 1878 snatches
 
 
Join Date: Oct 2014
Posts: 4,877
Rep Power: 49
Minnal has a reputation beyond repute
Minnal has a reputation beyond reputeMinnal has a reputation beyond reputeMinnal has a reputation beyond reputeMinnal has a reputation beyond reputeMinnal has a reputation beyond reputeMinnal has a reputation beyond repute
UL: 5.77 tb DL: 3.74 tb Ratio: 1.54
My Mood: Fine
Default Re: Top 50 songs of A R Rehman Pyramid BD25 - 08-10-2014

Thanks bro showing interest to upload the rip but Sorry bro, I already downloaded 20% old BD25. I need full BD25 bro.




(#4)
Old
TMR Rajni's Avatar
TMR Rajni TMR Rajni is offline
Moderator
Points: 14,933, Level: 37
Points: 14,933, Level: 37 Points: 14,933, Level: 37 Points: 14,933, Level: 37
Level up: 11%, 717 Points needed
Level up: 11% Level up: 11% Level up: 11%
Activity: 20.0%
Activity: 20.0% Activity: 20.0% Activity: 20.0%

I proudly released 61 torrents with 1107 snatches
 
 
Join Date: Oct 2014
Posts: 319
Rep Power: 27
TMR Rajni has a reputation beyond reputeTMR Rajni has a reputation beyond reputeTMR Rajni has a reputation beyond reputeTMR Rajni has a reputation beyond reputeTMR Rajni has a reputation beyond reputeTMR Rajni has a reputation beyond reputeTMR Rajni has a reputation beyond reputeTMR Rajni has a reputation beyond reputeTMR Rajni has a reputation beyond reputeTMR Rajni has a reputation beyond reputeTMR Rajni has a reputation beyond reputeTMR Rajni has a reputation beyond reputeTMR Rajni has a reputation beyond repute
UL: 666.24 gb DL: 136.88 gb Ratio: 4.87
My Mood: Busy
Default Re: Top 50 songs of A R Rehman Pyramid BD25 - 14-10-2014

this request has been fulfilled by Vettaimannan...kindly check it...




Closed Thread

Thread Tools
Display Modes

Similar Threads
Thread Thread Starter Forum Replies Last Post
Tamil Ayngaran Songs Stars HD VOL 5 - BD25 - AVC - 1080p - Pradeep007 Pradeep8788 Hi-Def BluRay 214 2 Weeks Ago 01:23 PM
Top 50 Songs of A.R.Rahman (2009) - BD25 - AVC - 1080P - DD 5.1 - Team TMR VettaiMannaN Hi-Def BluRay 320 2 Weeks Ago 05:45 AM
Peraanmai (2012 ) BD25 BLURAY Pradeep8788 Hi-Def BluRay 20 30-08-2018 06:16 AM
Ar Rehman Devotional Songs~ Mp3 ~ 191 Kbps ~ saski Saski Carnatic/Devotional 13 08-03-2018 12:14 PM
Idhu kathirvelan kadhlal bd25 MohanSeeder Request 4 07-12-2014 02:25 PM

Posting Rules
You may not post new threads
You may not post replies
You may not post attachments
You may not edit your posts

BB code is On
Smilies are On
[IMG] code is On
HTML code is Off




Powered by vBulletin® Version 3.8.7
Copyright ©2000 - 2018, vBulletin Solutions, Inc.
vBulletin Skin developed by: vBStyles.com
Ad Management plugin by RedTyger