TAMILMOVIEROCKERS
Ticket Torrents
Go Back   TAMILMOVIEROCKERS > -: Tamil Releases :- > Tamil DVD Rips (x2 Ratio Upload) > Old DVD-Rips
Reload this Page Sakalakala Vallavan(1982) DvDRip 2CD XviD [Team TMR]
Old DVD-Rips DVD Rips of Movies released before 2014.

Reply
 
Thread Tools Display Modes
(#21)
Old
Bazz Bazz is offline
TMR Member
Points: 2,343, Level: 13
Points: 2,343, Level: 13 Points: 2,343, Level: 13 Points: 2,343, Level: 13
Level up: 65%, 107 Points needed
Level up: 65% Level up: 65% Level up: 65%
Activity: 50.0%
Activity: 50.0% Activity: 50.0% Activity: 50.0%

I proudly released 1 torrents with 34 snatches
 
 
Join Date: May 2016
Posts: 354
Rep Power: 3
Bazz is an unknown quantity at this point
UL: 174.40 gb DL: 218.12 gb Ratio: 0.80
My Mood: Happy
Default 29th-April-2018

Quote:
Originally Posted by Ajish3043597 View Post

Sakalakala Vallavan(1982) DvDRip 2CD XviD [Team TMR]



General
Format : AVI
Format/Info : Audio Video Interleave
File size : 1.37 GiB
Duration : 2h 17mn
Overall bit rate : 1 424 Kbps
Writing application : VirtualDubMod 1.5.4.1 (build 2178/release)
Writing library : VirtualDubMod build 2178/release

Video
ID : 0
Format : MPEG-4 Visual
Format profile : Advanced Simple@L5
Format settings, BVOP : 1
Format settings, QPel : No
Format settings, GMC : No warppoints
Format settings, Matrix : Custom
Codec ID : XVID
Codec ID/Hint : XviD
Duration : 2h 17mn
Bit rate : 1 225 Kbps
Width : 560 pixels
Height : 416 pixels
Display aspect ratio : 4:3
Frame rate : 25.000 fps
Color space : YUV
Chroma subsampling : 4:2:0
Bit depth : 8 bits
Scan type : Progressive
Compression mode : Lossy
Bits/(Pixel*Frame) : 0.210
Stream size : 1.18 GiB (86%)
Writing library : XviD 64

Audio
ID : 1
Format : AC-3
Format/Info : Audio Coding 3
Mode extension : CM (complete main)
Codec ID : 2000
Duration : 2h 17mn
Bit rate mode : Constant
Bit rate : 192 Kbps
Channel(s) : 2 channels
Channel positions : Front: L R
Sampling rate : 48.0 KHz
Bit depth : 16 bits
Compression mode : Lossy
Stream size : 189 MiB (13%)
Alignment : Split accross interleaves
Interleave, duration : 96 ms (2.40 video frames)
Interleave, preload duration : 96 ms
Language : Tamil










Thanks for Sharing>>>>




Reply With Quote
(#22)
Old
Shivacsehit Shivacsehit is offline
New TMR'ian
Points: 8, Level: 1
Points: 8, Level: 1 Points: 8, Level: 1 Points: 8, Level: 1
Level up: 15%, 42 Points needed
Level up: 15% Level up: 15% Level up: 15%
Activity: 0%
Activity: 0% Activity: 0% Activity: 0%
   
Join Date: Sep 2018
Posts: 7
Rep Power: 1
Shivacsehit is an unknown quantity at this point
UL: 5.00 gb DL: 0.00 b Ratio: -
Default 7th-September-2018

thank you




Reply With Quote
(#23)
Old
Surasa Surasa is offline
TMR Member
Points: 1,987, Level: 12
Points: 1,987, Level: 12 Points: 1,987, Level: 12 Points: 1,987, Level: 12
Level up: 46%, 163 Points needed
Level up: 46% Level up: 46% Level up: 46%
Activity: 0%
Activity: 0% Activity: 0% Activity: 0%

   
Join Date: Feb 2015
Posts: 244
Rep Power: 4
Surasa will become famous soon enough
UL: 27.12 gb DL: 33.94 gb Ratio: 0.80
My Mood: Amused
Default 4th-October-2018

super movie




Reply With Quote
(#24)
Old
Daretowinraja Daretowinraja is offline
New TMR'ian
Points: 4, Level: 1
Points: 4, Level: 1 Points: 4, Level: 1 Points: 4, Level: 1
Level up: 7%, 46 Points needed
Level up: 7% Level up: 7% Level up: 7%
Activity: 0%
Activity: 0% Activity: 0% Activity: 0%
   
Join Date: Nov 2018
Posts: 2
Rep Power: 1
Daretowinraja is an unknown quantity at this point
UL: 5.00 gb DL: 0.00 b Ratio: -
Default 2 Weeks Ago

super movie




Reply With Quote
(#25)
Old
Raone's Avatar
Raone Raone is offline
New TMR'ian
Points: 4, Level: 1
Points: 4, Level: 1 Points: 4, Level: 1 Points: 4, Level: 1
Level up: 7%, 46 Points needed
Level up: 7% Level up: 7% Level up: 7%
Activity: 0%
Activity: 0% Activity: 0% Activity: 0%
   
Join Date: Dec 2018
Posts: 36
Rep Power: 1
Raone is an unknown quantity at this point
UL: 5.00 gb DL: 0.00 b Ratio: -
Default 1 Day Ago

broooo superb but wat bot 1080p




Reply

Tags
2cd, dvdrip, sakalakala, team, tmr, vallavan1982, xvid

Thread Tools
Display Modes

Similar Threads
Thread Thread Starter Forum Replies Last Post
Sakalakala Vallavan Appatakkar (2015) - Web HD Rip - 1CD - MP4 - E Subs - Team TMR Team TMR Web Rips 95 9th-October-2018 02:07 PM
Sakalakala Vallavan Appatakkar (2015) - HDRip - XviD - MP3 - 1CDRip - [Team Tolly] - Girish - Web HD/ Rips (Free Leech) 22 23rd-August-2018 08:39 AM
Sakalakala Vallavan (1982) - AP - Untouched - DVD9 - DD - Team TMR Maayavi DVD-9 53 3rd-June-2018 11:22 AM
Please Reseed Sakalakala Vallavan (1982) Pictliker Reseed 3 22nd-July-2016 06:02 AM
Sakalakala Vallavan (1982) - AP - Untouched - DVD9 - DD - Team TMR Frontline Reseed 2 2nd-September-2015 02:28 AM

Posting Rules
You may not post new threads
You may not post replies
You may not post attachments
You may not edit your posts

BB code is On
Smilies are On
[IMG] code is On
HTML code is Off




Powered by vBulletin® Version 3.8.7
Copyright ©2000 - 2018, vBulletin Solutions, Inc.
vBulletin Skin developed by: vBStyles.com
Ad Management plugin by RedTyger