TAMILMOVIEROCKERS Facebook Official
Ticket Torrents
Go Back   TAMILMOVIEROCKERS > -: Tamil Releases :- > Tamil Songs > New Movie Albums
Reload this Page [MP3]Strawberry (2015) - OST - ExtremeRip - 320Kbps - CBR - Pathi - TMR
Reply
 
Thread Tools Display Modes
(#1)
Old
Mr.Pathi's Avatar
Mr.Pathi Mr.Pathi is offline
TMR Member
Points: 278,464, Level: 100
Points: 278,464, Level: 100 Points: 278,464, Level: 100 Points: 278,464, Level: 100
Level up: 0%, 0 Points needed
Level up: 0% Level up: 0% Level up: 0%
Activity: 33.3%
Activity: 33.3% Activity: 33.3% Activity: 33.3%

I proudly released 4081 torrents with 39985 snatches
 
 
Join Date: Oct 2014
Posts: 4,559
Rep Power: 702
Mr.Pathi has a reputation beyond reputeMr.Pathi has a reputation beyond reputeMr.Pathi has a reputation beyond reputeMr.Pathi has a reputation beyond reputeMr.Pathi has a reputation beyond reputeMr.Pathi has a reputation beyond repute
Mr.Pathi has a reputation beyond reputeMr.Pathi has a reputation beyond reputeMr.Pathi has a reputation beyond reputeMr.Pathi has a reputation beyond reputeMr.Pathi has a reputation beyond reputeMr.Pathi has a reputation beyond reputeMr.Pathi has a reputation beyond reputeMr.Pathi has a reputation beyond reputeMr.Pathi has a reputation beyond reputeMr.Pathi has a reputation beyond reputeMr.Pathi has a reputation beyond reputeMr.Pathi has a reputation beyond reputeMr.Pathi has a reputation beyond reputeMr.Pathi has a reputation beyond reputeMr.Pathi has a reputation beyond repute
UL: 963.72 gb DL: 37.42 gb Ratio: 25.75
My Mood: Stressed
MP3 [MP3]Strawberry (2015) - OST - ExtremeRip - 320Kbps - CBR - Pathi - TMR - 01-08-2015

|ALBUM FRONT COVER|


|MEDIA INFO|
Code:
Format                                   : MPEG Audio
File size                                : 10.2 MiB
Duration                                 : 4mn 17s
Overall bit rate mode                    : Constant
Overall bit rate                         : 320 Kbps
Album                                    : Strawberry (Original Motion Picture Soundtrack)
Album/Performer                          : Tajnoor
Part/Position                            : 1
Part/Total                               : 1
Track name                               : Kaiveesum (Female)
Track name/Position                      : 6
Performer                                : Uthara Unnikrishnan
Composer                                 : Tajnoor
Genre                                    : Tamil
Released date                            : 2015
Recorded date                            : 2015
Writing library                          : LAME3.99.5
Cover                                    : Yes
Cover type                               : Cover (front)
Cover MIME                               : image/jpeg
Lyrics                                   :  Mr.Pathi @ TMR
Comment                                  : Mr.Pathi @ TMR
ENCODED BY                               : Mr.Pathi

Audio
Format                                   : MPEG Audio
Format version                           : Version 1
Format profile                           : Layer 3
Mode                                     : Joint stereo
Duration                                 : 4mn 17s
Bit rate mode                            : Constant
Bit rate                                 : 320 Kbps
Channel(s)                               : 2 channels
Sampling rate                            : 44.1 KHz
Compression mode                         : Lossy
Stream size                              : 9.81 MiB (96%)
Writing library                          : LAME3.99.5
|TRACK LIST|


!!! MORE XCLUSIVE MP3's COMING UP ONLY ON TMR !!!

!! Please Share With Proper Credits (Mr.Pathi @ TMR) Else Don't Download Here !!

!!! Please Keep Seeding After Download As Long As Possible !!!







Attached Files
File Type: torrent [MP3]Strawberry (2015) - OST - ExtremeRip - 320Kbps - CBR - Pathi - TMR.torrent (15.8 KB, 36 views), size: 48.46 mb, completed: 24
Name Size








The Following 5 Users Say Thank You to Mr.Pathi For This Useful Post:

5 Lastest Threads by Mr.Pathi
Thread Forum Last Poster Replies Views Last Post
Piya Tu Piya - Dongri Ka Raja - Video Song - Full... Music Videos Manuwalde 11 2485 04-11-2016 04:52 PM
Kaththi Sandai - Official Tamil Trailer - Vishal,... Trailers Bharatadi 8 2211 04-11-2016 04:40 PM
Bogan - Official Teaser - Jayam Ravi, Arvind... Trailers Manuwalde 10 2540 04-11-2016 04:33 PM
Nenjam Marappathillai - Official Trailer - S J... Trailers Manuwalde 6 2115 04-11-2016 04:26 PM
Ikka All I Need - Video Song - Full HD - 1080p -... Music Videos Manuwalde 11 2274 04-11-2016 08:52 AM

(#2)
Old
Simma Simma is offline
TMR Member
Points: 6,617, Level: 24
Points: 6,617, Level: 24 Points: 6,617, Level: 24 Points: 6,617, Level: 24
Level up: 14%, 433 Points needed
Level up: 14% Level up: 14% Level up: 14%
Activity: 7.1%
Activity: 7.1% Activity: 7.1% Activity: 7.1%

   
Join Date: Oct 2014
Posts: 1,377
Rep Power: 11
Simma is just really niceSimma is just really niceSimma is just really niceSimma is just really niceSimma is just really nice
UL: 6.02 tb DL: 427.85 gb Ratio: 14.41
Default 01-08-2015

Thanks for sharing.




Reply With Quote
(#3)
Old
TMR KING's Avatar
TMR KING TMR KING is offline
TMR Member
Points: 40,514, Level: 62
Points: 40,514, Level: 62 Points: 40,514, Level: 62 Points: 40,514, Level: 62
Level up: 13%, 1,136 Points needed
Level up: 13% Level up: 13% Level up: 13%
Activity: 20.0%
Activity: 20.0% Activity: 20.0% Activity: 20.0%

I proudly released 49 torrents with 723 snatches
 
 
Join Date: Oct 2014
Posts: 9,149
Age: 23
Rep Power: 55
TMR KING has a reputation beyond repute
TMR KING has a reputation beyond reputeTMR KING has a reputation beyond reputeTMR KING has a reputation beyond repute
UL: 19.63 tb DL: 7.45 tb Ratio: 2.63
My Mood: Angelic
Default 01-08-2015

Thanks For The Release




Reply With Quote
(#4)
Old
Saski's Avatar
Saski Saski is offline
Media Blogger
Points: 56,050, Level: 73
Points: 56,050, Level: 73 Points: 56,050, Level: 73 Points: 56,050, Level: 73
Level up: 34%, 1,000 Points needed
Level up: 34% Level up: 34% Level up: 34%
Activity: 99.9%
Activity: 99.9% Activity: 99.9% Activity: 99.9%

I proudly released 155 torrents with 940 snatches
 
 
Join Date: Oct 2014
Posts: 12,404
Rep Power: 63
Saski has a reputation beyond repute
Saski has a reputation beyond reputeSaski has a reputation beyond reputeSaski has a reputation beyond reputeSaski has a reputation beyond reputeSaski has a reputation beyond repute
UL: 133.83 gb DL: 34.34 gb Ratio: 3.90
My Mood: Amused
Default 02-08-2015

Thanks for the share





செல்வரின் வரவேற்பு நிறமிருந்தும் மணமில்லா காகிதப்பூ




Reply With Quote
(#5)
Old
Balajivab Balajivab is offline
TMR Member
Points: 1,394, Level: 10
Points: 1,394, Level: 10 Points: 1,394, Level: 10 Points: 1,394, Level: 10
Level up: 22%, 156 Points needed
Level up: 22% Level up: 22% Level up: 22%
Activity: 28.6%
Activity: 28.6% Activity: 28.6% Activity: 28.6%

   
Join Date: Oct 2014
Posts: 121
Rep Power: 6
Balajivab has a spectacular aura aboutBalajivab has a spectacular aura about
UL: 25.57 gb DL: 25.93 gb Ratio: 0.99
Default 02-08-2015

thanks for the share




Reply With Quote
(#6)
Old
Iyarkai Iyarkai is offline
TMR Member
Points: 1,621, Level: 11
Points: 1,621, Level: 11 Points: 1,621, Level: 11 Points: 1,621, Level: 11
Level up: 24%, 229 Points needed
Level up: 24% Level up: 24% Level up: 24%
Activity: 63.6%
Activity: 63.6% Activity: 63.6% Activity: 63.6%

   
Join Date: Oct 2014
Posts: 499
Rep Power: 8
Iyarkai is a jewel in the roughIyarkai is a jewel in the roughIyarkai is a jewel in the roughIyarkai is a jewel in the rough
UL: 3.52 tb DL: 643.18 gb Ratio: 5.61
My Mood: Amused
Default 02-08-2015

good share




Reply With Quote
(#7)
Old
Suhailonline Suhailonline is offline
TMR Member
Points: 1,333, Level: 9
Points: 1,333, Level: 9 Points: 1,333, Level: 9 Points: 1,333, Level: 9
Level up: 92%, 17 Points needed
Level up: 92% Level up: 92% Level up: 92%
Activity: 28.6%
Activity: 28.6% Activity: 28.6% Activity: 28.6%

   
Join Date: Oct 2014
Posts: 62
Rep Power: 4
Suhailonline is on a distinguished road
UL: 33.59 gb DL: 21.91 gb Ratio: 1.53
My Mood: Aggressive
Arrow 03-08-2015

Quote:
Originally Posted by Mr.Pathi View Post
|ALBUM FRONT COVER|


|MEDIA INFO|
Code:
Format                                   : MPEG Audio
File size                                : 10.2 MiB
Duration                                 : 4mn 17s
Overall bit rate mode                    : Constant
Overall bit rate                         : 320 Kbps
Album                                    : Strawberry (Original Motion Picture Soundtrack)
Album/Performer                          : Tajnoor
Part/Position                            : 1
Part/Total                               : 1
Track name                               : Kaiveesum (Female)
Track name/Position                      : 6
Performer                                : Uthara Unnikrishnan
Composer                                 : Tajnoor
Genre                                    : Tamil
Released date                            : 2015
Recorded date                            : 2015
Writing library                          : LAME3.99.5
Cover                                    : Yes
Cover type                               : Cover (front)
Cover MIME                               : image/jpeg
Lyrics                                   :  Mr.Pathi @ TMR
Comment                                  : Mr.Pathi @ TMR
ENCODED BY                               : Mr.Pathi

Audio
Format                                   : MPEG Audio
Format version                           : Version 1
Format profile                           : Layer 3
Mode                                     : Joint stereo
Duration                                 : 4mn 17s
Bit rate mode                            : Constant
Bit rate                                 : 320 Kbps
Channel(s)                               : 2 channels
Sampling rate                            : 44.1 KHz
Compression mode                         : Lossy
Stream size                              : 9.81 MiB (96%)
Writing library                          : LAME3.99.5
|TRACK LIST|


!!! MORE XCLUSIVE MP3's COMING UP ONLY ON TMR !!!

!! Please Share With Proper Credits (Mr.Pathi @ TMR) Else Don't Download Here !!

!!! Please Keep Seeding After Download As Long As Possible !!!











Reply With Quote
(#8)
Old
Steelbir's Avatar
Steelbir Steelbir is offline
TMR Member
Points: 2,884, Level: 15
Points: 2,884, Level: 15 Points: 2,884, Level: 15 Points: 2,884, Level: 15
Level up: 45%, 166 Points needed
Level up: 45% Level up: 45% Level up: 45%
Activity: 0%
Activity: 0% Activity: 0% Activity: 0%

I proudly released 3 torrents with 14 snatches
 
 
Join Date: Oct 2014
Posts: 502
Rep Power: 9
Steelbir is a jewel in the roughSteelbir is a jewel in the roughSteelbir is a jewel in the roughSteelbir is a jewel in the rough
UL: 98.86 gb DL: 37.63 gb Ratio: 2.63
My Mood: Daring
Default 04-08-2015

Thank You




Reply With Quote
(#9)
Old
Venkshan Venkshan is offline
TMR Member
Points: 1,389, Level: 10
Points: 1,389, Level: 10 Points: 1,389, Level: 10 Points: 1,389, Level: 10
Level up: 20%, 161 Points needed
Level up: 20% Level up: 20% Level up: 20%
Activity: 28.6%
Activity: 28.6% Activity: 28.6% Activity: 28.6%

   
Join Date: Oct 2014
Posts: 97
Rep Power: 5
Venkshan will become famous soon enough
UL: 45.89 gb DL: 37.38 gb Ratio: 1.23
Default 05-08-2015

Thank you




Reply With Quote
(#10)
Old
Singamda Singamda is offline
TMR Member
Points: 1,055, Level: 8
Points: 1,055, Level: 8 Points: 1,055, Level: 8 Points: 1,055, Level: 8
Level up: 53%, 95 Points needed
Level up: 53% Level up: 53% Level up: 53%
Activity: 0%
Activity: 0% Activity: 0% Activity: 0%

   
Join Date: May 2015
Posts: 78
Rep Power: 4
Singamda is an unknown quantity at this point
UL: 5.16 gb DL: 3.94 gb Ratio: 1.31
My Mood: Angelic
Default 23-08-2015

good share




Reply With Quote
Reply

Thread Tools
Display Modes

Similar Threads
Thread Thread Starter Forum Replies Last Post
[MP3] Strawberry (2015) - Single - Strawberry Promo - 320 KBPS - DonBro - Team TMR DonBro New Movie Albums 3 23-03-2018 12:16 PM
[MP3]Brothers (2015) - OST - ExtremeRip - 320Kbps - CBR - Pathi - TMR Mr.Pathi Hindi Audio 6 19-03-2018 02:59 AM
[MP3]Basthi (2015) - OST - ExtremeRip - 320Kbps - CBR - Pathi - TMR Mr.Pathi Telugu Audio 7 11-01-2018 02:41 AM
[MP3]My God (2015) - OST - ExtremeRip - 320Kbps - CBR - Pathi - TMR Mr.Pathi Malayalam Audio 19 18-11-2017 03:41 PM
Strawberry (2015) - Theme song - Making Video - Full HD - 1080p - MP4 - Pathi - TMR Mr.Pathi Hi Def & Upscales 3 13-07-2017 04:20 PM

Posting Rules
You may not post new threads
You may not post replies
You may not post attachments
You may not edit your posts

BB code is On
Smilies are On
[IMG] code is On
HTML code is Off




Powered by vBulletin® Version 3.8.7
Copyright ©2000 - 2018, vBulletin Solutions, Inc.
vBulletin Skin developed by: vBStyles.com
Ad Management plugin by RedTyger