TAMILMOVIEROCKERS Facebook Official
Ticket Torrents
Go Back   TAMILMOVIEROCKERS > -•: Info Desk :•- > Reports
Reload this Page Reported Post by Royal Rock
Reports You can report any issues about threads or anything else.

(#1)
Old
Royal Rock Royal Rock is offline
TMR Member
Points: 179, Level: 2
Points: 179, Level: 2 Points: 179, Level: 2 Points: 179, Level: 2
Level up: 29%, 71 Points needed
Level up: 29% Level up: 29% Level up: 29%
Activity: 0%
Activity: 0% Activity: 0% Activity: 0%

   
Join Date: Aug 2018
Posts: 2
Rep Power: 1
Royal Rock is an unknown quantity at this point
UL: 59.36 gb DL: 31.50 gb Ratio: 1.88
Default Reported Post by Royal Rock - 1 Week Ago

Royal Rock has reported a post.

Reason:
Quote:
Good
Post: Vishwaroopam 2 (2018) Tamil 720p HDRip x264 AAC5.1 Esubs
Forum: Web HD/ Rips (Free Leech)
Assigned Moderators: Dévil Máy Caré, tkse

Posted by: AravindNandu
Original Content:
Quote:
Vishwaroopam 2 (2018) Tamil 720p HDRip x264 AAC5.1 Esubs



-Rip Info-

Video - x264 (1280x544)

Audio - AAC 5.1 (192kbps)

Subtitles - English (softcoded) Muxed

Chapters - N/A




-Screenshots-

Click to enlarge


Wanted to go for 999MB target size, but cutting out the political party's promo resulted in 948MB.. Good quality for size though..



-MediaInfo-

Code:
Format                      : Matroska
Format version              : Version 4 / Version 2
File size                   : 948 MiB
Duration                    : 2 h 20 min
Overall bit rate            : 943 kb/s
Encoded date                : UTC 2018-09-13 01:48:04
Writing application         : mkvmerge v25.0.0 ('Prog Noir') 32-bit
Writing library             : libebml v1.3.6 + libmatroska v1.4.9

Video
ID                          : 1
Format                      : AVC
Format/Info                 : Advanced Video Codec
Format profile              : High@L4.1
Format settings             : CABAC / 4 Ref Frames
Format settings, CABAC      : Yes
Format settings, ReFrames   : 4 frames
Codec ID                    : V_MPEG4/ISO/AVC
Duration                    : 2 h 20 min
Bit rate                    : 753 kb/s
Width                       : 1 280 pixels
Height                      : 544 pixels
Display aspect ratio        : 2.35:1
Frame rate mode             : Constant
Frame rate                  : 24.000 FPS
Color space                 : YUV
Chroma subsampling          : 4:2:0
Bit depth                   : 8 bits
Scan type                   : Progressive
Bits/(Pixel*Frame)          : 0.045
Stream size                 : 757 MiB (80%)
Default                     : Yes
Forced                      : No

Audio
ID                          : 2
Format                      : AAC
Format/Info                 : Advanced Audio Codec
Format profile              : HE-AAC / LC
Format settings             : Explicit
Codec ID                    : A_AAC-2
Duration                    : 2 h 20 min
Bit rate                    : 192 kb/s
Channel(s)                  : 6 channels
Channel positions           : Front: L C R, Side: L R, LFE
Sampling rate               : 48.0 kHz / 24.0 kHz
Frame rate                  : 23.438 FPS (1024 SPF)
Compression mode            : Lossy
Delay relative to video     : 19 ms
Stream size                 : 189 MiB (20%)
Default                     : Yes
Forced                      : No

Text
ID                          : 3
Format                      : UTF-8
Codec ID                    : S_TEXT/UTF8
Codec ID/Info               : UTF-8 Plain Text
Duration                    : 2 h 19 min
Bit rate                    : 26 b/s
Count of elements           : 867
Stream size                 : 27.5 KiB (0%)
Default                     : Yes
Forced                      : No
Source - TRUE WEB HD 1080P Untouched DD 5.1 Esubs Team TMR (6.55GB)

Encoded by MyRipsRG

Please comment on the quality and seed back after download





5 Lastest Threads by Royal Rock
Thread Forum Last Poster Replies Views Last Post
Reported Post by Royal Rock Reports Royal Rock 0 27 13-09-2018 06:05 AM

Reply

Thread Tools
Display Modes

Similar Threads
Thread Thread Starter Forum Replies Last Post
Rock On 2 - ROCK ON REVISITED - Video Song - Full HD - 1080p - MP4 - Pathi - TMR Mr.Pathi Music Videos 8 11-04-2018 03:59 AM
Rock Ruban Introduce Yourself 0 10-12-2016 10:22 AM

Posting Rules
You may not post new threads
You may not post replies
You may not post attachments
You may not edit your posts

BB code is On
Smilies are On
[IMG] code is On
HTML code is Off




Powered by vBulletin® Version 3.8.7
Copyright ©2000 - 2018, vBulletin Solutions, Inc.
vBulletin Skin developed by: vBStyles.com
Ad Management plugin by RedTyger