TAMILMOVIEROCKERS Facebook Official
Ticket Torrents
Go Back   TAMILMOVIEROCKERS > -: Other Releases :- > Telugu Releases - (Free Leech Except DVD-R) > Music Videos
Reload this Page Janatha Garage - Pakka Local - Full Video Song - Full HD - 1080p - MP4 - Pathi - TMR
Reply
 
Thread Tools Display Modes
(#1)
Old
Mr.Pathi's Avatar
Mr.Pathi Mr.Pathi is offline
TMR Member
Points: 278,464, Level: 100
Points: 278,464, Level: 100 Points: 278,464, Level: 100 Points: 278,464, Level: 100
Level up: 0%, 0 Points needed
Level up: 0% Level up: 0% Level up: 0%
Activity: 33.3%
Activity: 33.3% Activity: 33.3% Activity: 33.3%

I proudly released 4081 torrents with 39958 snatches
 
 
Join Date: Oct 2014
Posts: 4,559
Rep Power: 701
Mr.Pathi has a reputation beyond reputeMr.Pathi has a reputation beyond reputeMr.Pathi has a reputation beyond reputeMr.Pathi has a reputation beyond reputeMr.Pathi has a reputation beyond reputeMr.Pathi has a reputation beyond repute
Mr.Pathi has a reputation beyond reputeMr.Pathi has a reputation beyond reputeMr.Pathi has a reputation beyond reputeMr.Pathi has a reputation beyond reputeMr.Pathi has a reputation beyond reputeMr.Pathi has a reputation beyond reputeMr.Pathi has a reputation beyond reputeMr.Pathi has a reputation beyond reputeMr.Pathi has a reputation beyond reputeMr.Pathi has a reputation beyond reputeMr.Pathi has a reputation beyond reputeMr.Pathi has a reputation beyond reputeMr.Pathi has a reputation beyond reputeMr.Pathi has a reputation beyond reputeMr.Pathi has a reputation beyond repute
UL: 963.72 gb DL: 37.42 gb Ratio: 25.75
My Mood: Stressed
HDRIP Janatha Garage - Pakka Local - Full Video Song - Full HD - 1080p - MP4 - Pathi - TMR - 10-10-2016

|MOVIE COVER|


|MEDIA INFO|
Code:
Format                                   : MPEG-4
Format profile                           : Base Media
Codec ID                                 : isom
File size                                : 140 MiB
Duration                                 : 4mn 36s
Overall bit rate                         : 4 230 Kbps
Writing application                      : Lavf55.33.100

Video
ID                                       : 1
Format                                   : AVC
Format/Info                              : Advanced Video Codec
Format profile                           : High@L4
Format settings, CABAC                   : Yes
Format settings, ReFrames                : 2 frames
Codec ID                                 : avc1
Codec ID/Info                            : Advanced Video Coding
Duration                                 : 4mn 36s
Bit rate                                 : 4 100 Kbps
Width                                    : 1 920 pixels
Height                                   : 1 080 pixels
Display aspect ratio                     : 16:9
Frame rate mode                          : Constant
Frame rate                               : 24.000 fps
Color space                              : YUV
Chroma subsampling                       : 4:2:0
Bit depth                                : 8 bits
Scan type                                : Progressive
Bits/(Pixel*Frame)                       : 0.082
Stream size                              : 135 MiB (97%)
Color range                              : Limited
Color primaries                          : BT.709
Transfer characteristics                 : BT.709
Matrix coefficients                      : BT.709

Audio
ID                                       : 2
Format                                   : AAC
Format/Info                              : Advanced Audio Codec
Format profile                           : LC
Codec ID                                 : 40
Duration                                 : 4mn 36s
Bit rate mode                            : Constant
Bit rate                                 : 126 Kbps
Channel(s)                               : 2 channels
Channel positions                        : Front: L R
Sampling rate                            : 44.1 KHz
Compression mode                         : Lossy
Stream size                              : 4.14 MiB (3%)



!! Please Share With Proper Credits (Mr.Pathi @ TMR) Else Don't Download Here !!

!!! Please Keep Seeding After Download As Long As Possible !!!







Attached Files
File Type: torrent Janatha Garage - Pakka Local - Full Video Song - Full HD - 1080p - MP4 - Pathi - TMR.torrent (11.3 KB, 52 views), size: 139.53 mb, completed: 28
Name Size








The Following 10 Users Say Thank You to Mr.Pathi For This Useful Post:

5 Lastest Threads by Mr.Pathi
Thread Forum Last Poster Replies Views Last Post
Piya Tu Piya - Dongri Ka Raja - Video Song - Full... Music Videos Manuwalde 10 2203 04-11-2016 04:52 PM
Kaththi Sandai - Official Tamil Trailer - Vishal,... Trailers Manuwalde 7 1942 04-11-2016 04:40 PM
Bogan - Official Teaser - Jayam Ravi, Arvind... Trailers Manuwalde 10 2238 04-11-2016 04:33 PM
Nenjam Marappathillai - Official Trailer - S J... Trailers Manuwalde 6 1890 04-11-2016 04:26 PM
Ikka All I Need - Video Song - Full HD - 1080p -... Music Videos Manuwalde 11 1984 04-11-2016 08:52 AM

(#2)
Old
Shiva83 Shiva83 is offline
TMR Member
Points: 910, Level: 7
Points: 910, Level: 7 Points: 910, Level: 7 Points: 910, Level: 7
Level up: 80%, 40 Points needed
Level up: 80% Level up: 80% Level up: 80%
Activity: 0%
Activity: 0% Activity: 0% Activity: 0%

   
Join Date: May 2015
Posts: 26
Rep Power: 4
Shiva83 is on a distinguished road
UL: 5.41 gb DL: 6.91 gb Ratio: 0.78
Default 10-10-2016

Quote:
Originally Posted by Mr.Pathi View Post
|MOVIE COVER|


|MEDIA INFO|
Code:
Format                                   : MPEG-4
Format profile                           : Base Media
Codec ID                                 : isom
File size                                : 140 MiB
Duration                                 : 4mn 36s
Overall bit rate                         : 4 230 Kbps
Writing application                      : Lavf55.33.100

Video
ID                                       : 1
Format                                   : AVC
Format/Info                              : Advanced Video Codec
Format profile                           : High@L4
Format settings, CABAC                   : Yes
Format settings, ReFrames                : 2 frames
Codec ID                                 : avc1
Codec ID/Info                            : Advanced Video Coding
Duration                                 : 4mn 36s
Bit rate                                 : 4 100 Kbps
Width                                    : 1 920 pixels
Height                                   : 1 080 pixels
Display aspect ratio                     : 16:9
Frame rate mode                          : Constant
Frame rate                               : 24.000 fps
Color space                              : YUV
Chroma subsampling                       : 4:2:0
Bit depth                                : 8 bits
Scan type                                : Progressive
Bits/(Pixel*Frame)                       : 0.082
Stream size                              : 135 MiB (97%)
Color range                              : Limited
Color primaries                          : BT.709
Transfer characteristics                 : BT.709
Matrix coefficients                      : BT.709

Audio
ID                                       : 2
Format                                   : AAC
Format/Info                              : Advanced Audio Codec
Format profile                           : LC
Codec ID                                 : 40
Duration                                 : 4mn 36s
Bit rate mode                            : Constant
Bit rate                                 : 126 Kbps
Channel(s)                               : 2 channels
Channel positions                        : Front: L R
Sampling rate                            : 44.1 KHz
Compression mode                         : Lossy
Stream size                              : 4.14 MiB (3%)



!! Please Share With Proper Credits (Mr.Pathi @ TMR) Else Don't Download Here !!

!!! Please Keep Seeding After Download As Long As Possible !!!







Nice share bro




Reply With Quote
(#3)
Old
Dvhp Dvhp is offline
TMR Member
Points: 1,696, Level: 11
Points: 1,696, Level: 11 Points: 1,696, Level: 11 Points: 1,696, Level: 11
Level up: 49%, 154 Points needed
Level up: 49% Level up: 49% Level up: 49%
Activity: 16.7%
Activity: 16.7% Activity: 16.7% Activity: 16.7%

   
Join Date: Oct 2015
Posts: 285
Rep Power: 5
Dvhp has a spectacular aura aboutDvhp has a spectacular aura aboutDvhp has a spectacular aura about
UL: 34.31 gb DL: 22.05 gb Ratio: 1.56
Default 10-10-2016

Thank you




Reply With Quote
(#4)
Old
Sgarun09 Sgarun09 is offline
TMR Member
Points: 802, Level: 7
Points: 802, Level: 7 Points: 802, Level: 7 Points: 802, Level: 7
Level up: 26%, 148 Points needed
Level up: 26% Level up: 26% Level up: 26%
Activity: 0%
Activity: 0% Activity: 0% Activity: 0%

   
Join Date: Oct 2015
Posts: 50
Rep Power: 3
Sgarun09 is an unknown quantity at this point
UL: 5.03 gb DL: 4.69 gb Ratio: 1.07
Default 10-10-2016

Tank u for the song..




Reply With Quote
(#5)
Old
Saski's Avatar
Saski Saski is offline
Media Blogger
Points: 55,004, Level: 72
Points: 55,004, Level: 72 Points: 55,004, Level: 72 Points: 55,004, Level: 72
Level up: 64%, 546 Points needed
Level up: 64% Level up: 64% Level up: 64%
Activity: 28.6%
Activity: 28.6% Activity: 28.6% Activity: 28.6%

I proudly released 155 torrents with 935 snatches
 
 
Join Date: Oct 2014
Posts: 12,286
Rep Power: 62
Saski has a reputation beyond repute
Saski has a reputation beyond reputeSaski has a reputation beyond reputeSaski has a reputation beyond reputeSaski has a reputation beyond reputeSaski has a reputation beyond repute
UL: 133.83 gb DL: 34.34 gb Ratio: 3.90
My Mood: Amused
Default 10-10-2016

Thanks for the share..





செல்வரின் வரவேற்பு நிறமிருந்தும் மணமில்லா காகிதப்பூ




Reply With Quote
(#6)
Old
Sgarun09 Sgarun09 is offline
TMR Member
Points: 802, Level: 7
Points: 802, Level: 7 Points: 802, Level: 7 Points: 802, Level: 7
Level up: 26%, 148 Points needed
Level up: 26% Level up: 26% Level up: 26%
Activity: 0%
Activity: 0% Activity: 0% Activity: 0%

   
Join Date: Oct 2015
Posts: 50
Rep Power: 3
Sgarun09 is an unknown quantity at this point
UL: 5.03 gb DL: 4.69 gb Ratio: 1.07
Default 10-10-2016

Thanks for video songs




Reply With Quote
(#7)
Old
Rayan Rayan is offline
TMR Member
Points: 3,565, Level: 17
Points: 3,565, Level: 17 Points: 3,565, Level: 17 Points: 3,565, Level: 17
Level up: 29%, 285 Points needed
Level up: 29% Level up: 29% Level up: 29%
Activity: 0%
Activity: 0% Activity: 0% Activity: 0%

   
Join Date: Oct 2014
Posts: 1,236
Rep Power: 8
Rayan is a jewel in the roughRayan is a jewel in the roughRayan is a jewel in the rough
UL: 0.99 tb DL: 457.80 gb Ratio: 2.21
Default 10-10-2016

thank you




Reply With Quote
(#8)
Old
Suhash Suhash is offline
TMR Member
Points: 1,202, Level: 9
Points: 1,202, Level: 9 Points: 1,202, Level: 9 Points: 1,202, Level: 9
Level up: 26%, 148 Points needed
Level up: 26% Level up: 26% Level up: 26%
Activity: 16.7%
Activity: 16.7% Activity: 16.7% Activity: 16.7%

   
Join Date: Oct 2015
Posts: 67
Rep Power: 3
Suhash is an unknown quantity at this point
UL: 16.28 gb DL: 6.21 gb Ratio: 2.62
Default 10-10-2016

good share




Reply With Quote
(#9)
Old
Visva_naveed Visva_naveed is offline
TMR Member
Points: 763, Level: 7
Points: 763, Level: 7 Points: 763, Level: 7 Points: 763, Level: 7
Level up: 7%, 187 Points needed
Level up: 7% Level up: 7% Level up: 7%
Activity: 23.5%
Activity: 23.5% Activity: 23.5% Activity: 23.5%

   
Join Date: Aug 2015
Posts: 171
Rep Power: 4
Visva_naveed will become famous soon enoughVisva_naveed will become famous soon enough
UL: 5.16 gb DL: 6.47 gb Ratio: 0.80
Default 10-10-2016

good song




Reply With Quote
(#10)
Old
Kvikkraman85 Kvikkraman85 is offline
TMR Member
Points: 7,312, Level: 25
Points: 7,312, Level: 25 Points: 7,312, Level: 25 Points: 7,312, Level: 25
Level up: 53%, 238 Points needed
Level up: 53% Level up: 53% Level up: 53%
Activity: 33.3%
Activity: 33.3% Activity: 33.3% Activity: 33.3%

I proudly released 70 torrents with 746 snatches
 
 
Join Date: Apr 2016
Posts: 787
Rep Power: 17
Kvikkraman85 has much to be proud ofKvikkraman85 has much to be proud ofKvikkraman85 has much to be proud ofKvikkraman85 has much to be proud ofKvikkraman85 has much to be proud ofKvikkraman85 has much to be proud ofKvikkraman85 has much to be proud ofKvikkraman85 has much to be proud ofKvikkraman85 has much to be proud ofKvikkraman85 has much to be proud of
UL: 532.18 gb DL: 602.00 gb Ratio: 0.88
My Mood: Cheerful
Default 11-10-2016

thnx 4 share




Reply With Quote
Reply

Thread Tools
Display Modes

Similar Threads
Thread Thread Starter Forum Replies Last Post
Janatha Garage - Apple Beauty - Full Video Song - Full HD - 1080p - MP4 - Pathi - TMR Mr.Pathi Music Videos 16 3 Weeks Ago 04:39 AM
[MP3]Janatha Garage (2016) - OST - ExtremeRip - 320Kbps - CBR - Pathi - TMR Mr.Pathi Telugu Audio 35 03-01-2018 02:55 AM
Janatha Garage - Pranaamam - Video Song - Full HD - 1080p - MP4 - Pathi - TMR Mr.Pathi Music Videos 8 31-12-2017 02:21 AM
Janatha Garage - Jayaho Janatha - Malayalam Video Song - Full HD - 1080p - MP4 - Pathi - TMR Mr.Pathi Music Videos 18 23-12-2017 03:12 AM
Andhadhi (2015) - Title Song - Full Video Song - Full HD - 1080p - MP4 - Pathi - TMR Mr.Pathi Hi Def & Upscales 6 17-07-2017 04:31 AM

Posting Rules
You may not post new threads
You may not post replies
You may not post attachments
You may not edit your posts

BB code is On
Smilies are On
[IMG] code is On
HTML code is Off




Powered by vBulletin® Version 3.8.7
Copyright ©2000 - 2018, vBulletin Solutions, Inc.
vBulletin Skin developed by: vBStyles.com
Ad Management plugin by RedTyger