TAMILMOVIEROCKERS
Ticket Torrents
Go Back   TAMILMOVIEROCKERS > -: Tamil Releases :- > BluRay/Web Rips > BD/BR - Rips
Reload this Page Thuppakki (2012) [TAMIL - 1080p - BDRip - x264 - DTS HDMA - ESUB] - MAZE
BD/BR - Rips Bluray Rips 720p/1080p

Reply
 
Thread Tools Display Modes
(#51)
Old
Rin_fmx Rin_fmx is offline
New TMR'ian
Points: 7, Level: 1
Points: 7, Level: 1 Points: 7, Level: 1 Points: 7, Level: 1
Level up: 13%, 43 Points needed
Level up: 13% Level up: 13% Level up: 13%
Activity: 14.3%
Activity: 14.3% Activity: 14.3% Activity: 14.3%
   
Join Date: Feb 2018
Posts: 7
Rep Power: 1
Rin_fmx is an unknown quantity at this point
UL: 5.00 gb DL: 0.00 b Ratio: -
Default 18th-February-2018

After i download reply




Reply With Quote
(#52)
Old
Universe23god Universe23god is offline
New TMR'ian
Points: 307, Level: 3
Points: 307, Level: 3 Points: 307, Level: 3 Points: 307, Level: 3
Level up: 57%, 43 Points needed
Level up: 57% Level up: 57% Level up: 57%
Activity: 0%
Activity: 0% Activity: 0% Activity: 0%

   
Join Date: Mar 2018
Posts: 99
Rep Power: 1
Universe23god is an unknown quantity at this point
UL: 5.03 gb DL: 24.00 mb Ratio: 214.52
Default 28th-March-2018

thanks a lot




Reply With Quote
(#53)
Old
RITHISH ABINAV RITHISH ABINAV is offline
New TMR'ian
Points: 17, Level: 1
Points: 17, Level: 1 Points: 17, Level: 1 Points: 17, Level: 1
Level up: 33%, 33 Points needed
Level up: 33% Level up: 33% Level up: 33%
Activity: 99.0%
Activity: 99.0% Activity: 99.0% Activity: 99.0%
   
Join Date: Oct 2018
Posts: 9
Rep Power: 1
RITHISH ABINAV is an unknown quantity at this point
UL: 5.00 gb DL: 0.00 b Ratio: -
Default 16th-October-2018

SUPERB bro




Reply With Quote
(#54)
Old
Zirojrocky Zirojrocky is offline
New TMR'ian
Points: 7, Level: 1
Points: 7, Level: 1 Points: 7, Level: 1 Points: 7, Level: 1
Level up: 13%, 43 Points needed
Level up: 13% Level up: 13% Level up: 13%
Activity: 0%
Activity: 0% Activity: 0% Activity: 0%
   
Join Date: Nov 2018
Posts: 2
Rep Power: 1
Zirojrocky is an unknown quantity at this point
UL: 5.00 gb DL: 0.00 b Ratio: -
Default 3 Weeks Ago

Thanks bro




Reply With Quote
(#55)
Old
Logeshsk Logeshsk is offline
TMR Member
Points: 1,733, Level: 11
Points: 1,733, Level: 11 Points: 1,733, Level: 11 Points: 1,733, Level: 11
Level up: 61%, 117 Points needed
Level up: 61% Level up: 61% Level up: 61%
Activity: 50.0%
Activity: 50.0% Activity: 50.0% Activity: 50.0%

   
Join Date: Mar 2016
Posts: 398
Rep Power: 4
Logeshsk has a spectacular aura aboutLogeshsk has a spectacular aura about
UL: 68.17 gb DL: 81.21 gb Ratio: 0.84
Default 3 Weeks Ago

superb bro




Reply With Quote
(#56)
Old
Naturalsofman Naturalsofman is offline
New TMR'ian
Points: 10, Level: 1
Points: 10, Level: 1 Points: 10, Level: 1 Points: 10, Level: 1
Level up: 19%, 40 Points needed
Level up: 19% Level up: 19% Level up: 19%
Activity: 0%
Activity: 0% Activity: 0% Activity: 0%
   
Join Date: Nov 2018
Posts: 5
Rep Power: 1
Naturalsofman is an unknown quantity at this point
UL: 5.00 gb DL: 0.00 b Ratio: -
Default 3 Weeks Ago

Quote:
Originally Posted by TMR MAZE View Post





Thuppakki (2012) [TAMIL - 1080p - BDRip - x264 - DTS HDMA - ESUB] - MAZE

Code:
General
Unique ID                                : 192004372506280299474583072964641143396 (0x9072B271A08CA4C696ABC95C4399BA64)
Complete name                            : Thuppakki (2012) [TAMIL - 1080p - BDRip - x264 - DTS HDMA - ESUB] - MAZE.mkv
Format                                   : Matroska
Format version                           : Version 4 / Version 2
File size                                : 6.51 GiB
Duration                                 : 2h 49mn
Overall bit rate                         : 5 486 Kbps
Movie name                               : MAZERelease

Video
ID                                       : 1
Format                                   : AVC
Format/Info                              : Advanced Video Codec
Format profile                           : Main@L4
Format settings, CABAC                   : Yes
Format settings, ReFrames                : 4 frames
Codec ID                                 : V_MPEG4/ISO/AVC
Duration                                 : 2h 49mn
Bit rate                                 : 3 000 Kbps
Width                                    : 1 920 pixels
Height                                   : 816 pixels
Display aspect ratio                     : 2.35:1
Frame rate mode                          : Constant
Frame rate                               : 24.000 fps
Color space                              : YUV
Chroma subsampling                       : 4:2:0
Bit depth                                : 8 bits
Scan type                                : Progressive
Bits/(Pixel*Frame)                       : 0.080
Stream size                              : 3.52 GiB (54%)
Title                                    : MAZERelease
Writing library                          : x264 core 142 r2479 dd79a61
Language                                 : Tamil
Default                                  : Yes
Forced                                   : No
Color range                              : Limited
Color primaries                          : BT.709
Transfer characteristics                 : BT.709
Matrix coefficients                      : BT.709

Audio
ID                                       : 2
Format                                   : DTS
Format/Info                              : Digital Theater Systems
Format profile                           : MA / Core
Mode                                     : 16
Format settings, Endianness              : Big
Codec ID                                 : A_DTS
Duration                                 : 2h 49mn
Bit rate mode                            : Variable / Constant
Bit rate                                 : 2 515 Kbps / 1 509 Kbps
Channel(s)                               : 6 channels
Channel positions                        : Front: L C R, Side: L R, LFE
Sampling rate                            : 48.0 KHz
Frame rate                               : 93.750 fps (512 spf)
Bit depth                                : 16 bits
Compression mode                         : Lossless / Lossy
Delay relative to video                  : -83ms
Stream size                              : 2.98 GiB (46%)
Title                                    : MAZERelease
Language                                 : Tamil
Default                                  : Yes
Forced                                   : No

Text
ID                                       : 3
Format                                   : VobSub
Muxing mode                              : zlib
Codec ID                                 : S_VOBSUB
Codec ID/Info                            : Picture based subtitle format used on DVDs
Duration                                 : 2h 45mn
Bit rate                                 : 3 900 bps
Count of elements                        : 1541
Stream size                              : 4.61 MiB (0%)
Title                                    : MAZERelease
Language                                 : English
Default                                  : Yes
Forced                                   : No

Menu
00:00:00.000                             : en:Chapter 01
00:05:26.326                             : en:Chapter 02









Source Credits To Sri Ram

Please share with proper credit (MAZERelease)

Thanks for Downloading

Thanks for this torrent




Reply With Quote
(#57)
Old
Naturalsofman Naturalsofman is offline
New TMR'ian
Points: 10, Level: 1
Points: 10, Level: 1 Points: 10, Level: 1 Points: 10, Level: 1
Level up: 19%, 40 Points needed
Level up: 19% Level up: 19% Level up: 19%
Activity: 0%
Activity: 0% Activity: 0% Activity: 0%
   
Join Date: Nov 2018
Posts: 5
Rep Power: 1
Naturalsofman is an unknown quantity at this point
UL: 5.00 gb DL: 0.00 b Ratio: -
Default 3 Weeks Ago

Thanks for this share bro ..... tamilrockers go




Reply With Quote
(#58)
Old
Naturalsofman Naturalsofman is offline
New TMR'ian
Points: 10, Level: 1
Points: 10, Level: 1 Points: 10, Level: 1 Points: 10, Level: 1
Level up: 19%, 40 Points needed
Level up: 19% Level up: 19% Level up: 19%
Activity: 0%
Activity: 0% Activity: 0% Activity: 0%
   
Join Date: Nov 2018
Posts: 5
Rep Power: 1
Naturalsofman is an unknown quantity at this point
UL: 5.00 gb DL: 0.00 b Ratio: -
Thumbs up Best tamilrockers - 3 Weeks Ago

I think tamilrockers ruling the world ...before and after




Reply With Quote
(#59)
Old
Raone's Avatar
Raone Raone is offline
New TMR'ian
Points: 4, Level: 1
Points: 4, Level: 1 Points: 4, Level: 1 Points: 4, Level: 1
Level up: 7%, 46 Points needed
Level up: 7% Level up: 7% Level up: 7%
Activity: 0%
Activity: 0% Activity: 0% Activity: 0%
   
Join Date: Dec 2018
Posts: 36
Rep Power: 1
Raone is an unknown quantity at this point
UL: 5.00 gb DL: 0.00 b Ratio: -
Default 5 Days Ago

Osm share broooo




Reply

Tags
1080p, 2012, bdrip, dts, esub, hdma, maze, tamil, thuppakki, x264

Thread Tools
Display Modes

Similar Threads
Thread Thread Starter Forum Replies Last Post
Thuppakki (2012) - Bluray - 1080p - X264 - DTS - HD MA - 6 CH - Esub - HORSS - Team TMR Horss BD/BR - Rips 174 4 Days Ago 04:49 PM
Thuppakki (2012) - BD Rip - 1080p - DTS 5.1 - ESUB - 4GB - SurZ Sagayaraj BD/BR - Rips 70 6 Days Ago 01:05 PM
Thuppakki (2012) 1080p BluRay DTS MA x264 Subs [Team TMR] Sumo MaN BD/BR - Rips 92 1 Week Ago 03:43 PM
PRDP (2015) [1080p - BDRip - x264 - AAC - [Hin-Tam-Tel] - ESub - 2.85GB] - MAZE TMR MAZE BD/BR - Rips 24 16th-September-2018 12:29 PM
Kalakalappu (2012) - BDRip - x264 - 1080p - DTSMA - ESub - Team TMR VettaiMannaN BD/BR - Rips 61 15th-September-2018 03:52 PM

Posting Rules
You may not post new threads
You may not post replies
You may not post attachments
You may not edit your posts

BB code is On
Smilies are On
[IMG] code is On
HTML code is Off




Powered by vBulletin® Version 3.8.7
Copyright ©2000 - 2018, vBulletin Solutions, Inc.
vBulletin Skin developed by: vBStyles.com
Ad Management plugin by RedTyger