TAMILMOVIEROCKERS Facebook Official
Ticket Torrents
Go Back   TAMILMOVIEROCKERS > -: Tamil Releases :- > Tamil Songs > New Movie Albums
Reload this Page Iravukku Aayiram Kangal (2018) - Arulnithi in - Tamil - MP3 Songs - CBR - 320 kbps - Team TMR
Reply
 
Thread Tools Display Modes
(#1)
Old
Subbu2000 Subbu2000 is offline
TMR Member
Points: 19,297, Level: 42
Points: 19,297, Level: 42 Points: 19,297, Level: 42 Points: 19,297, Level: 42
Level up: 39%, 553 Points needed
Level up: 39% Level up: 39% Level up: 39%
Activity: 99.8%
Activity: 99.8% Activity: 99.8% Activity: 99.8%

I proudly released 30 torrents with 652 snatches
 
 
Join Date: Feb 2017
Posts: 2,754
Rep Power: 35
Subbu2000 has a reputation beyond reputeSubbu2000 has a reputation beyond reputeSubbu2000 has a reputation beyond reputeSubbu2000 has a reputation beyond reputeSubbu2000 has a reputation beyond reputeSubbu2000 has a reputation beyond reputeSubbu2000 has a reputation beyond reputeSubbu2000 has a reputation beyond reputeSubbu2000 has a reputation beyond reputeSubbu2000 has a reputation beyond reputeSubbu2000 has a reputation beyond reputeSubbu2000 has a reputation beyond reputeSubbu2000 has a reputation beyond reputeSubbu2000 has a reputation beyond reputeSubbu2000 has a reputation beyond repute
UL: 932.66 gb DL: 9.75 gb Ratio: 95.65
My Mood: Cheeky
MP3 Iravukku Aayiram Kangal (2018) - Arulnithi in - Tamil - MP3 Songs - CBR - 320 kbps - Team TMR - 1 Week Ago

Iravukku Aayiram Kangal (2018) - Arulnithi in - Tamil - MP3 Songs - CBR - 320 kbps - Team TMR



MOVIE INFO

Starring: Arulnithi, Ajmal, Mahima Nambiar, Vidya Pradeep
Directed by: Mu. Maran
Music by: Sam CS
Produced by: G. Dilli Babu
Country: India
Language: Tamil
Year: 2018


MEDIA INFO

Code:
Iravukku Aayiram Kangal (2018) - Arulnithi in -  Tamil - MP3 Songs - CBR - 320 kbps - Team TMR\Uyir Uruvaatha.mp3
Format                                   : MPEG Audio
File size                                : 9.66 MiB
Duration                                 : 4 min 13 s
Overall bit rate mode                    : Constant
Overall bit rate                         : 320 kb/s
Writing library                          : LAME3.99r

Audio
Format                                   : MPEG Audio
Format version                           : Version 1
Format profile                           : Layer 3
Mode                                     : Joint stereo
Duration                                 : 4 min 13 s
Bit rate mode                            : Constant
Bit rate                                 : 320 kb/s
Channel(s)                               : 2 channels
Sampling rate                            : 44.1 kHz
Compression mode                         : Lossy
Stream size                              : 9.66 MiB (100%)
Writing library                          : LAME3.99r
Encoding settings                        : -m j -V 4 -q 3 -lowpass 20.5
TRACK INFO

Yean Penne Neeyum
Artists: Haricharan

Yea Pa Yeppappa
Artists: Sam C.S., Swagatha S. Krishnan

Winds Of The Darkest Hour
Artists: Chennai Orchestra

Uyir Uruvaatha
Artists: D. Sathyaprakash, Chinmayi Sripaada

Nights Of Neverland
Artists: Sam C.S., Chennai Orchestra
Attached Files
File Type: torrent Iravukku Aayiram Kangal (2018) - Arulnithi in - Tamil - MP3 Songs - CBR - 320 kbps - Team T.torrent (2.0 KB, 19 views), size: 37.13 mb, seeders: 2, completed: 12
Name Size
Name Completed % Left Uploaded Downloaded Last Announce




The Following 8 Users Say Thank You to Subbu2000 For This Useful Post:

5 Lastest Threads by Subbu2000
Thread Forum Last Poster Replies Views Last Post
Kaali (2018) - Vijay Antony in - Tamil - MP3... New Movie Albums Theena 18 126 15-02-2018 02:24 AM
Keni (2018) - Parthiban in - Tamil - MP3 Songs -... New Movie Albums Venkshan 13 189 10-02-2018 05:06 AM
Iravukku Aayiram Kangal (2018) - Arulnithi in - ... New Movie Albums Venkshan 15 153 10-02-2018 04:55 AM
Sketch (2018) - HDRip - 720p - AC3 5.1 - HC ESubs... Web HD/ Rips (Free Leech) Srikannan 16 386 10-02-2018 04:15 AM
Mannar Vagaiyara (2018) - 720p - HDRip - AC3 5.1... Web HD/ Rips (Free Leech) Mindkrishna 23 242 09-02-2018 02:31 AM

(#2)
Old
Bluray_123 Bluray_123 is offline
TMR Member
Points: 9,025, Level: 28
Points: 9,025, Level: 28 Points: 9,025, Level: 28 Points: 9,025, Level: 28
Level up: 46%, 325 Points needed
Level up: 46% Level up: 46% Level up: 46%
Activity: 99.2%
Activity: 99.2% Activity: 99.2% Activity: 99.2%

I proudly released 2 torrents with 28 snatches
 
 
Join Date: Oct 2014
Posts: 1,684
Rep Power: 15
Bluray_123 is a splendid one to beholdBluray_123 is a splendid one to beholdBluray_123 is a splendid one to beholdBluray_123 is a splendid one to beholdBluray_123 is a splendid one to beholdBluray_123 is a splendid one to beholdBluray_123 is a splendid one to behold
UL: 2.07 tb DL: 1.98 tb Ratio: 1.05
Default 1 Week Ago

Thanks fr the good share




Reply With Quote
(#3)
Old
Simma Simma is offline
TMR Member
Points: 6,365, Level: 23
Points: 6,365, Level: 23 Points: 6,365, Level: 23 Points: 6,365, Level: 23
Level up: 63%, 185 Points needed
Level up: 63% Level up: 63% Level up: 63%
Activity: 42.9%
Activity: 42.9% Activity: 42.9% Activity: 42.9%

   
Join Date: Oct 2014
Posts: 1,365
Rep Power: 10
Simma is just really niceSimma is just really niceSimma is just really niceSimma is just really niceSimma is just really nice
UL: 5.91 tb DL: 425.80 gb Ratio: 14.21
Default 1 Week Ago

Thanks for the share.




Reply With Quote
(#4)
Old
Vallavaan123's Avatar
Vallavaan123 Vallavaan123 is offline
Premium Users
Points: 13,668, Level: 35
Points: 13,668, Level: 35 Points: 13,668, Level: 35 Points: 13,668, Level: 35
Level up: 46%, 382 Points needed
Level up: 46% Level up: 46% Level up: 46%
Activity: 99.5%
Activity: 99.5% Activity: 99.5% Activity: 99.5%

   
Join Date: Oct 2014
Posts: 4,206
Rep Power: 16
Vallavaan123 is just really niceVallavaan123 is just really niceVallavaan123 is just really niceVallavaan123 is just really niceVallavaan123 is just really nice
UL: 9.34 tb DL: 499.29 gb Ratio: 19.15
Default 1 Week Ago

Thanks fr the good share




Reply With Quote
(#5)
Old
Guna676 Guna676 is offline
TMR Member
Points: 646, Level: 6
Points: 646, Level: 6 Points: 646, Level: 6 Points: 646, Level: 6
Level up: 48%, 104 Points needed
Level up: 48% Level up: 48% Level up: 48%
Activity: 42.9%
Activity: 42.9% Activity: 42.9% Activity: 42.9%

   
Join Date: Oct 2014
Posts: 317
Rep Power: 4
Guna676 is an unknown quantity at this point
UL: 555.34 gb DL: 105.89 gb Ratio: 5.24
Default 1 Week Ago

thank you sharing




Reply With Quote
(#6)
Old
MasssBabu's Avatar
MasssBabu MasssBabu is offline
TMR Member
Points: 52,973, Level: 71
Points: 52,973, Level: 71 Points: 52,973, Level: 71 Points: 52,973, Level: 71
Level up: 29%, 1,077 Points needed
Level up: 29% Level up: 29% Level up: 29%
Activity: 100.0%
Activity: 100.0% Activity: 100.0% Activity: 100.0%

I proudly released 131 torrents with 3465 snatches
 
 
Join Date: Sep 2015
Posts: 9,177
Rep Power: 72
MasssBabu has a reputation beyond repute
MasssBabu has a reputation beyond reputeMasssBabu has a reputation beyond reputeMasssBabu has a reputation beyond reputeMasssBabu has a reputation beyond reputeMasssBabu has a reputation beyond reputeMasssBabu has a reputation beyond reputeMasssBabu has a reputation beyond reputeMasssBabu has a reputation beyond reputeMasssBabu has a reputation beyond reputeMasssBabu has a reputation beyond reputeMasssBabu has a reputation beyond reputeMasssBabu has a reputation beyond reputeMasssBabu has a reputation beyond repute
UL: 3.96 tb DL: 205.24 gb Ratio: 19.73
My Mood: Cool
Default 1 Week Ago

Thanks for the good share




Reply With Quote
(#7)
Old
Minnal's Avatar
Minnal Minnal is offline
Releaser
Points: 32,015, Level: 55
Points: 32,015, Level: 55 Points: 32,015, Level: 55 Points: 32,015, Level: 55
Level up: 6%, 1,035 Points needed
Level up: 6% Level up: 6% Level up: 6%
Activity: 99.6%
Activity: 99.6% Activity: 99.6% Activity: 99.6%

I proudly released 130 torrents with 1696 snatches
 
 
Join Date: Oct 2014
Posts: 4,492
Rep Power: 43
Minnal has a reputation beyond repute
Minnal has a reputation beyond reputeMinnal has a reputation beyond repute
UL: 5.26 tb DL: 3.64 tb Ratio: 1.44
My Mood: Fine
Default 1 Week Ago

Thanks for the share.




Reply With Quote
(#8)
Old
raj&raj raj&raj is offline
TMR Member
Points: 921, Level: 7
Points: 921, Level: 7 Points: 921, Level: 7 Points: 921, Level: 7
Level up: 86%, 29 Points needed
Level up: 86% Level up: 86% Level up: 86%
Activity: 99.0%
Activity: 99.0% Activity: 99.0% Activity: 99.0%

   
Join Date: Mar 2016
Posts: 195
Rep Power: 2
raj&raj is an unknown quantity at this point
UL: 7.32 gb DL: 9.24 gb Ratio: 0.79
Default 1 Week Ago

Quote:
Originally Posted by Subbu2000 View Post
Iravukku Aayiram Kangal (2018) - Arulnithi in - Tamil - MP3 Songs - CBR - 320 kbps - Team TMR



MOVIE INFO

Starring: Arulnithi, Ajmal, Mahima Nambiar, Vidya Pradeep
Directed by: Mu. Maran
Music by: Sam CS
Produced by: G. Dilli Babu
Country: India
Language: Tamil
Year: 2018


MEDIA INFO

Code:
Iravukku Aayiram Kangal (2018) - Arulnithi in -  Tamil - MP3 Songs - CBR - 320 kbps - Team TMR\Uyir Uruvaatha.mp3
Format                                   : MPEG Audio
File size                                : 9.66 MiB
Duration                                 : 4 min 13 s
Overall bit rate mode                    : Constant
Overall bit rate                         : 320 kb/s
Writing library                          : LAME3.99r

Audio
Format                                   : MPEG Audio
Format version                           : Version 1
Format profile                           : Layer 3
Mode                                     : Joint stereo
Duration                                 : 4 min 13 s
Bit rate mode                            : Constant
Bit rate                                 : 320 kb/s
Channel(s)                               : 2 channels
Sampling rate                            : 44.1 kHz
Compression mode                         : Lossy
Stream size                              : 9.66 MiB (100%)
Writing library                          : LAME3.99r
Encoding settings                        : -m j -V 4 -q 3 -lowpass 20.5
TRACK INFO

Yean Penne Neeyum
Artists: Haricharan

Yea Pa Yeppappa
Artists: Sam C.S., Swagatha S. Krishnan

Winds Of The Darkest Hour
Artists: Chennai Orchestra

Uyir Uruvaatha
Artists: D. Sathyaprakash, Chinmayi Sripaada

Nights Of Neverland
Artists: Sam C.S., Chennai Orchestra
Hit Super Hit




Reply With Quote
(#9)
Old
Jishnumale Jishnumale is offline
TMR Member
Points: 1,275, Level: 9
Points: 1,275, Level: 9 Points: 1,275, Level: 9 Points: 1,275, Level: 9
Level up: 63%, 75 Points needed
Level up: 63% Level up: 63% Level up: 63%
Activity: 14.3%
Activity: 14.3% Activity: 14.3% Activity: 14.3%

   
Join Date: Feb 2015
Posts: 178
Rep Power: 3
Jishnumale is an unknown quantity at this point
UL: 5.10 gb DL: 5.69 gb Ratio: 0.90
Default 1 Week Ago

thanks for updates




Reply With Quote
(#10)
Old
Saski's Avatar
Saski Saski is offline
Media Blogger
Points: 50,044, Level: 69
Points: 50,044, Level: 69 Points: 50,044, Level: 69 Points: 50,044, Level: 69
Level up: 21%, 1,106 Points needed
Level up: 21% Level up: 21% Level up: 21%
Activity: 99.9%
Activity: 99.9% Activity: 99.9% Activity: 99.9%

I proudly released 155 torrents with 932 snatches
 
 
Join Date: Oct 2014
Posts: 12,064
Rep Power: 45
Saski has a brilliant futureSaski has a brilliant futureSaski has a brilliant futureSaski has a brilliant futureSaski has a brilliant futureSaski has a brilliant futureSaski has a brilliant futureSaski has a brilliant futureSaski has a brilliant futureSaski has a brilliant futureSaski has a brilliant future
UL: 133.83 gb DL: 34.34 gb Ratio: 3.90
My Mood: Amused
Default 1 Week Ago

Thanks for sharing





செல்வரின் வரவேற்பு நிறமிருந்தும் மணமில்லா காகிதப்பூ




Reply With Quote
Reply

Thread Tools
Display Modes

Similar Threads
Thread Thread Starter Forum Replies Last Post
Pakka (2018) - Vikram Prabhu in - Tamil - MP3 Songs - CBR - 320 kbps - Team TMR Subbu2000 New Movie Albums 26 4 Days Ago 06:12 PM
Kalakalappu 2 (2018) - Sundhar.C in -i Tunes Rip - Tamil - MP3 Songs - CBR - 320 kbps - Team TMR Subbu2000 New Movie Albums 15 5 Days Ago 06:03 PM
Tik Tik Tik (2018) - Jayam Ravi in - Tamil - MP3 Songs - CBR - 320 kbps - Team TMR Subbu2000 New Movie Albums 38 1 Week Ago 05:33 AM
Irumbu Thirai (2018) - Vishal in - Tamil - MP3 Songs - CBR - 320 kbps - Team TMR Subbu2000 New Movie Albums 28 1 Week Ago 05:32 AM
Savarakathi (2018) - Director Ram in - Tamil - MP3 Songs - CBR - 320 kbps - Team TMR Subbu2000 New Movie Albums 16 2 Weeks Ago 05:50 AM

Posting Rules
You may not post new threads
You may not post replies
You may not post attachments
You may not edit your posts

BB code is On
Smilies are On
[IMG] code is On
HTML code is Off




Powered by vBulletin® Version 3.8.7
Copyright ©2000 - 2018, vBulletin Solutions, Inc.
vBulletin Skin developed by: vBStyles.com
Ad Management plugin by RedTyger