TAMILMOVIEROCKERS Facebook Official
Ticket Torrents
Go Back   TAMILMOVIEROCKERS > -: Tamil Releases :- > Tamil Songs > New Movie Albums
Reload this Page Iravukku Aayiram Kangal (2018) - Arulnithi in - Tamil - MP3 Songs - CBR - 320 kbps - Team TMR
Reply
 
Thread Tools Display Modes
(#1)
Old
Subbu2000 Subbu2000 is offline
TMR Member
Points: 30,432, Level: 53
Points: 30,432, Level: 53 Points: 30,432, Level: 53 Points: 30,432, Level: 53
Level up: 62%, 418 Points needed
Level up: 62% Level up: 62% Level up: 62%
Activity: 14.3%
Activity: 14.3% Activity: 14.3% Activity: 14.3%

I proudly released 38 torrents with 1328 snatches
 
 
Join Date: Feb 2017
Posts: 4,558
Rep Power: 46
Subbu2000 has a reputation beyond repute
Subbu2000 has a reputation beyond reputeSubbu2000 has a reputation beyond reputeSubbu2000 has a reputation beyond reputeSubbu2000 has a reputation beyond reputeSubbu2000 has a reputation beyond reputeSubbu2000 has a reputation beyond repute
UL: 1.14 tb DL: 9.77 gb Ratio: 119.45
My Mood: Cheeky
MP3 Iravukku Aayiram Kangal (2018) - Arulnithi in - Tamil - MP3 Songs - CBR - 320 kbps - Team TMR - 10-02-2018

Iravukku Aayiram Kangal (2018) - Arulnithi in - Tamil - MP3 Songs - CBR - 320 kbps - Team TMR



MOVIE INFO

Starring: Arulnithi, Ajmal, Mahima Nambiar, Vidya Pradeep
Directed by: Mu. Maran
Music by: Sam CS
Produced by: G. Dilli Babu
Country: India
Language: Tamil
Year: 2018


MEDIA INFO

Code:
Iravukku Aayiram Kangal (2018) - Arulnithi in -  Tamil - MP3 Songs - CBR - 320 kbps - Team TMR\Uyir Uruvaatha.mp3
Format                                   : MPEG Audio
File size                                : 9.66 MiB
Duration                                 : 4 min 13 s
Overall bit rate mode                    : Constant
Overall bit rate                         : 320 kb/s
Writing library                          : LAME3.99r

Audio
Format                                   : MPEG Audio
Format version                           : Version 1
Format profile                           : Layer 3
Mode                                     : Joint stereo
Duration                                 : 4 min 13 s
Bit rate mode                            : Constant
Bit rate                                 : 320 kb/s
Channel(s)                               : 2 channels
Sampling rate                            : 44.1 kHz
Compression mode                         : Lossy
Stream size                              : 9.66 MiB (100%)
Writing library                          : LAME3.99r
Encoding settings                        : -m j -V 4 -q 3 -lowpass 20.5
TRACK INFO

Yean Penne Neeyum
Artists: Haricharan

Yea Pa Yeppappa
Artists: Sam C.S., Swagatha S. Krishnan

Winds Of The Darkest Hour
Artists: Chennai Orchestra

Uyir Uruvaatha
Artists: D. Sathyaprakash, Chinmayi Sripaada

Nights Of Neverland
Artists: Sam C.S., Chennai Orchestra
Attached Files
File Type: torrent Iravukku Aayiram Kangal (2018) - Arulnithi in - Tamil - MP3 Songs - CBR - 320 kbps - Team T.torrent (2.0 KB, 33 views), size: 37.13 mb, seeders: 1, completed: 18
Name Size
Name Completed % Left Uploaded Downloaded Last Announce




The Following 11 Users Say Thank You to Subbu2000 For This Useful Post:

5 Lastest Threads by Subbu2000
Thread Forum Last Poster Replies Views Last Post
Mr Chandramouli (2018) - Gautham Karthik in -... New Movie Albums Karthikeyan007 33 610 25-04-2018 01:47 AM
Nagesh Thiraiyarangam (2018) - WEB HD Rip -720p -... Web HD/ Rips (Free Leech) Thina194 57 949 05-04-2018 05:09 AM
Nagesh Thiraiyarangam (2018) - UNTOUCHED - WEB HD... Web HD/ Rips (Free Leech) Jeyaraj 53 1095 05-04-2018 03:29 AM
Kaathadi (2018) - WEB HD Rip - mkv - AC3 5.1 -... Web HD/ Rips (Free Leech) Jeyaraj 45 1161 30-03-2018 04:48 AM
Padmaavat (2018) - WEB HD - 720p - Tamil - mkv -... Web HD/ Rips (Free Leech) Veera16 136 1962 27-03-2018 05:21 AM

(#2)
Old
Bluray_123 Bluray_123 is offline
TMR Member
Points: 9,461, Level: 29
Points: 9,461, Level: 29 Points: 9,461, Level: 29 Points: 9,461, Level: 29
Level up: 19%, 489 Points needed
Level up: 19% Level up: 19% Level up: 19%
Activity: 60.0%
Activity: 60.0% Activity: 60.0% Activity: 60.0%

I proudly released 2 torrents with 28 snatches
 
 
Join Date: Oct 2014
Posts: 1,812
Rep Power: 16
Bluray_123 is a splendid one to beholdBluray_123 is a splendid one to beholdBluray_123 is a splendid one to beholdBluray_123 is a splendid one to beholdBluray_123 is a splendid one to beholdBluray_123 is a splendid one to beholdBluray_123 is a splendid one to behold
UL: 2.20 tb DL: 2.16 tb Ratio: 1.02
Default 10-02-2018

Thanks fr the good share




Reply With Quote
(#3)
Old
Simma Simma is offline
TMR Member
Points: 6,617, Level: 24
Points: 6,617, Level: 24 Points: 6,617, Level: 24 Points: 6,617, Level: 24
Level up: 14%, 433 Points needed
Level up: 14% Level up: 14% Level up: 14%
Activity: 7.1%
Activity: 7.1% Activity: 7.1% Activity: 7.1%

   
Join Date: Oct 2014
Posts: 1,377
Rep Power: 11
Simma is just really niceSimma is just really niceSimma is just really niceSimma is just really niceSimma is just really nice
UL: 6.02 tb DL: 427.85 gb Ratio: 14.41
Default 10-02-2018

Thanks for the share.




Reply With Quote
(#4)
Old
Vallavaan123's Avatar
Vallavaan123 Vallavaan123 is offline
Premium Users
Points: 15,223, Level: 37
Points: 15,223, Level: 37 Points: 15,223, Level: 37 Points: 15,223, Level: 37
Level up: 47%, 427 Points needed
Level up: 47% Level up: 47% Level up: 47%
Activity: 40.0%
Activity: 40.0% Activity: 40.0% Activity: 40.0%

   
Join Date: Oct 2014
Posts: 4,585
Rep Power: 19
Vallavaan123 is a glorious beacon of lightVallavaan123 is a glorious beacon of lightVallavaan123 is a glorious beacon of lightVallavaan123 is a glorious beacon of lightVallavaan123 is a glorious beacon of lightVallavaan123 is a glorious beacon of light
UL: 19.60 tb DL: 499.29 gb Ratio: 40.20
Default 10-02-2018

Thanks fr the good share




Reply With Quote
(#5)
Old
Guna676 Guna676 is offline
TMR Member
Points: 1,213, Level: 9
Points: 1,213, Level: 9 Points: 1,213, Level: 9 Points: 1,213, Level: 9
Level up: 32%, 137 Points needed
Level up: 32% Level up: 32% Level up: 32%
Activity: 16.7%
Activity: 16.7% Activity: 16.7% Activity: 16.7%

   
Join Date: Oct 2014
Posts: 320
Rep Power: 6
Guna676 has a spectacular aura aboutGuna676 has a spectacular aura aboutGuna676 has a spectacular aura about
UL: 555.34 gb DL: 105.89 gb Ratio: 5.24
Default 10-02-2018

thank you sharing




Reply With Quote
(#6)
Old
Josojoso21 Josojoso21 is offline
TMR Member
Points: 73, Level: 1
Points: 73, Level: 1 Points: 73, Level: 1 Points: 73, Level: 1
Level up: 23%, 77 Points needed
Level up: 23% Level up: 23% Level up: 23%
Activity: 0%
Activity: 0% Activity: 0% Activity: 0%

   
Join Date: Dec 2017
Posts: 36
Rep Power: 1
Josojoso21 is an unknown quantity at this point
UL: 5.49 gb DL: 3.89 gb Ratio: 1.41
Default 10-02-2018

thanks tmr !! supereb !! expecting flac or wav in near future




Reply With Quote
(#7)
Old
MasssBabu's Avatar
MasssBabu MasssBabu is offline
TMR Member
Points: 60,022, Level: 75
Points: 60,022, Level: 75 Points: 60,022, Level: 75 Points: 60,022, Level: 75
Level up: 99%, 28 Points needed
Level up: 99% Level up: 99% Level up: 99%
Activity: 0%
Activity: 0% Activity: 0% Activity: 0%

I proudly released 132 torrents with 3572 snatches
 
 
Join Date: Sep 2015
Posts: 10,331
Rep Power: 83
MasssBabu has a reputation beyond repute
MasssBabu has a reputation beyond reputeMasssBabu has a reputation beyond reputeMasssBabu has a reputation beyond reputeMasssBabu has a reputation beyond reputeMasssBabu has a reputation beyond reputeMasssBabu has a reputation beyond reputeMasssBabu has a reputation beyond reputeMasssBabu has a reputation beyond reputeMasssBabu has a reputation beyond reputeMasssBabu has a reputation beyond reputeMasssBabu has a reputation beyond reputeMasssBabu has a reputation beyond reputeMasssBabu has a reputation beyond reputeMasssBabu has a reputation beyond reputeMasssBabu has a reputation beyond repute
UL: 3.97 tb DL: 217.23 gb Ratio: 18.72
My Mood: Cool
Default 10-02-2018

Thanks for the good share




Reply With Quote
(#8)
Old
Minnal's Avatar
Minnal Minnal is offline
Quality Releaser
Points: 36,816, Level: 59
Points: 36,816, Level: 59 Points: 36,816, Level: 59 Points: 36,816, Level: 59
Level up: 14%, 1,034 Points needed
Level up: 14% Level up: 14% Level up: 14%
Activity: 0%
Activity: 0% Activity: 0% Activity: 0%

I proudly released 137 torrents with 1859 snatches
 
 
Join Date: Oct 2014
Posts: 4,855
Rep Power: 49
Minnal has a reputation beyond repute
Minnal has a reputation beyond reputeMinnal has a reputation beyond reputeMinnal has a reputation beyond reputeMinnal has a reputation beyond reputeMinnal has a reputation beyond reputeMinnal has a reputation beyond repute
UL: 5.77 tb DL: 3.74 tb Ratio: 1.54
My Mood: Fine
Default 10-02-2018

Thanks for the share.




Reply With Quote
(#9)
Old
raj&raj raj&raj is offline
TMR Member
Points: 1,464, Level: 10
Points: 1,464, Level: 10 Points: 1,464, Level: 10 Points: 1,464, Level: 10
Level up: 57%, 86 Points needed
Level up: 57% Level up: 57% Level up: 57%
Activity: 40.0%
Activity: 40.0% Activity: 40.0% Activity: 40.0%

   
Join Date: Mar 2016
Posts: 206
Rep Power: 4
raj&raj has a spectacular aura aboutraj&raj has a spectacular aura about
UL: 7.32 gb DL: 9.24 gb Ratio: 0.79
Default 10-02-2018

Quote:
Originally Posted by Subbu2000 View Post
Iravukku Aayiram Kangal (2018) - Arulnithi in - Tamil - MP3 Songs - CBR - 320 kbps - Team TMR



MOVIE INFO

Starring: Arulnithi, Ajmal, Mahima Nambiar, Vidya Pradeep
Directed by: Mu. Maran
Music by: Sam CS
Produced by: G. Dilli Babu
Country: India
Language: Tamil
Year: 2018


MEDIA INFO

Code:
Iravukku Aayiram Kangal (2018) - Arulnithi in -  Tamil - MP3 Songs - CBR - 320 kbps - Team TMR\Uyir Uruvaatha.mp3
Format                                   : MPEG Audio
File size                                : 9.66 MiB
Duration                                 : 4 min 13 s
Overall bit rate mode                    : Constant
Overall bit rate                         : 320 kb/s
Writing library                          : LAME3.99r

Audio
Format                                   : MPEG Audio
Format version                           : Version 1
Format profile                           : Layer 3
Mode                                     : Joint stereo
Duration                                 : 4 min 13 s
Bit rate mode                            : Constant
Bit rate                                 : 320 kb/s
Channel(s)                               : 2 channels
Sampling rate                            : 44.1 kHz
Compression mode                         : Lossy
Stream size                              : 9.66 MiB (100%)
Writing library                          : LAME3.99r
Encoding settings                        : -m j -V 4 -q 3 -lowpass 20.5
TRACK INFO

Yean Penne Neeyum
Artists: Haricharan

Yea Pa Yeppappa
Artists: Sam C.S., Swagatha S. Krishnan

Winds Of The Darkest Hour
Artists: Chennai Orchestra

Uyir Uruvaatha
Artists: D. Sathyaprakash, Chinmayi Sripaada

Nights Of Neverland
Artists: Sam C.S., Chennai Orchestra
Hit Super Hit




Reply With Quote
(#10)
Old
Jishnumale Jishnumale is offline
TMR Member
Points: 1,318, Level: 9
Points: 1,318, Level: 9 Points: 1,318, Level: 9 Points: 1,318, Level: 9
Level up: 84%, 32 Points needed
Level up: 84% Level up: 84% Level up: 84%
Activity: 0%
Activity: 0% Activity: 0% Activity: 0%

   
Join Date: Feb 2015
Posts: 179
Rep Power: 4
Jishnumale is an unknown quantity at this point
UL: 5.10 gb DL: 5.73 gb Ratio: 0.89
Default 10-02-2018

thanks for updates




Reply With Quote
Reply

Thread Tools
Display Modes

Similar Threads
Thread Thread Starter Forum Replies Last Post
Tik Tik Tik (2018) - Jayam Ravi in - Tamil - MP3 Songs - CBR - 320 kbps - Team TMR Subbu2000 New Movie Albums 74 1 Week Ago 12:24 PM
Irumbu Thirai (2018) - Vishal in - Tamil - MP3 Songs - CBR - 320 kbps - Team TMR Subbu2000 New Movie Albums 36 2 Weeks Ago 07:40 PM
Pakka (2018) - Vikram Prabhu in - Tamil - MP3 Songs - CBR - 320 kbps - Team TMR Subbu2000 New Movie Albums 30 2 Weeks Ago 07:39 PM
Kalakalappu 2 (2018) - Sundhar.C in -i Tunes Rip - Tamil - MP3 Songs - CBR - 320 kbps - Team TMR Subbu2000 New Movie Albums 24 2 Weeks Ago 05:25 AM
Savarakathi (2018) - Director Ram in - Tamil - MP3 Songs - CBR - 320 kbps - Team TMR Subbu2000 New Movie Albums 22 06-05-2018 10:19 AM

Posting Rules
You may not post new threads
You may not post replies
You may not post attachments
You may not edit your posts

BB code is On
Smilies are On
[IMG] code is On
HTML code is Off




Powered by vBulletin® Version 3.8.7
Copyright ©2000 - 2018, vBulletin Solutions, Inc.
vBulletin Skin developed by: vBStyles.com
Ad Management plugin by RedTyger