TAMILMOVIEROCKERS Facebook Official
Ticket Torrents
Go Back   TAMILMOVIEROCKERS > -: Tamil Releases :- > Tamil Songs > New Movie Albums
Reload this Page Keni (2018) - Parthiban in - Tamil - MP3 Songs - CBR - 320 kbps - Team TMR
(#1)
Old
Subbu2000 Subbu2000 is offline
TMR Member
Points: 30,432, Level: 53
Points: 30,432, Level: 53 Points: 30,432, Level: 53 Points: 30,432, Level: 53
Level up: 62%, 418 Points needed
Level up: 62% Level up: 62% Level up: 62%
Activity: 14.3%
Activity: 14.3% Activity: 14.3% Activity: 14.3%

I proudly released 38 torrents with 1322 snatches
 
 
Join Date: Feb 2017
Posts: 4,557
Rep Power: 46
Subbu2000 has a reputation beyond repute
Subbu2000 has a reputation beyond reputeSubbu2000 has a reputation beyond reputeSubbu2000 has a reputation beyond reputeSubbu2000 has a reputation beyond reputeSubbu2000 has a reputation beyond reputeSubbu2000 has a reputation beyond repute
UL: 1.14 tb DL: 9.77 gb Ratio: 119.45
My Mood: Cheeky
MP3 Keni (2018) - Parthiban in - Tamil - MP3 Songs - CBR - 320 kbps - Team TMR - 10-02-2018

Keni (2018) - Parthiban in - Tamil - MP3 Songs - CBR - 320 kbps - Team TMR




MOVIE INFO

Starring: Parthiban, Nassar, Jayapradha, Revathi
Directed by: M.A. Nishad
Music by: M. Jayachandran
Produced by:
Country: India
Language: Tamil
Year: 2018


MEDIA INFO

Code:
Keni (2018) - Parthiban in -  Tamil - MP3 Songs - CBR - 320 kbps - Team TMR\Kalayum Meghame.mp3
Format                                   : MPEG Audio
File size                                : 8.90 MiB
Duration                                 : 3 min 53 s
Overall bit rate mode                    : Constant
Overall bit rate                         : 320 kb/s
Writing library                          : LAME3.99r

Audio
Format                                   : MPEG Audio
Format version                           : Version 1
Format profile                           : Layer 3
Mode                                     : Joint stereo
Mode extension                           : MS Stereo
Duration                                 : 3 min 53 s
Bit rate mode                            : Constant
Bit rate                                 : 320 kb/s
Channel(s)                               : 2 channels
Sampling rate                            : 44.1 kHz
Compression mode                         : Lossy
Stream size                              : 8.90 MiB (100%)
Writing library                          : LAME3.99r
Encoding settings                        : -m j -V 4 -q 3 -lowpass 20.5
TRACK INFO



Vedithidum Bhoomi
Artists: Vijay Yesudas

Kalayum Meghame
Artists: Sithara Krishnakumar

Ayya Sami
Artists: K.J. Yesudas, S. P. Balasubrahmanyam
Attached Files
File Type: torrent Keni (2018) - Parthiban in - Tamil - MP3 Songs - CBR - 320 kbps - Team TMR.torrent (1.6 KB, 13 views), size: 29.52 mb, seeders: 1, completed: 12
Name Size
Name Completed % Left Uploaded Downloaded Last Announce




The Following 8 Users Say Thank You to Subbu2000 For This Useful Post:

5 Lastest Threads by Subbu2000
Thread Forum Last Poster Replies Views Last Post
Mr Chandramouli (2018) - Gautham Karthik in -... New Movie Albums Karthikeyan007 33 532 25-04-2018 01:47 AM
Nagesh Thiraiyarangam (2018) - WEB HD Rip -720p -... Web HD/ Rips (Free Leech) Thina194 57 858 05-04-2018 05:09 AM
Nagesh Thiraiyarangam (2018) - UNTOUCHED - WEB HD... Web HD/ Rips (Free Leech) Dillikumar 52 1004 05-04-2018 03:29 AM
Kaathadi (2018) - WEB HD Rip - mkv - AC3 5.1 -... Web HD/ Rips (Free Leech) Somuji007 44 1038 30-03-2018 04:48 AM
Padmaavat (2018) - WEB HD - 720p - Tamil - mkv -... Web HD/ Rips (Free Leech) Aurorab 131 1828 27-03-2018 05:21 AM

(#2)
Old
Bluray_123 Bluray_123 is offline
TMR Member
Points: 9,355, Level: 29
Points: 9,355, Level: 29 Points: 9,355, Level: 29 Points: 9,355, Level: 29
Level up: 1%, 595 Points needed
Level up: 1% Level up: 1% Level up: 1%
Activity: 35.7%
Activity: 35.7% Activity: 35.7% Activity: 35.7%

I proudly released 2 torrents with 28 snatches
 
 
Join Date: Oct 2014
Posts: 1,777
Rep Power: 15
Bluray_123 is a splendid one to beholdBluray_123 is a splendid one to beholdBluray_123 is a splendid one to beholdBluray_123 is a splendid one to beholdBluray_123 is a splendid one to beholdBluray_123 is a splendid one to beholdBluray_123 is a splendid one to behold
UL: 2.15 tb DL: 2.07 tb Ratio: 1.04
Default 10-02-2018

Thanks fr the good share




Reply With Quote
(#3)
Old
Simma Simma is offline
TMR Member
Points: 6,558, Level: 24
Points: 6,558, Level: 24 Points: 6,558, Level: 24 Points: 6,558, Level: 24
Level up: 2%, 492 Points needed
Level up: 2% Level up: 2% Level up: 2%
Activity: 7.1%
Activity: 7.1% Activity: 7.1% Activity: 7.1%

   
Join Date: Oct 2014
Posts: 1,375
Rep Power: 10
Simma is just really niceSimma is just really niceSimma is just really niceSimma is just really niceSimma is just really nice
UL: 6.01 tb DL: 427.85 gb Ratio: 14.38
Default 10-02-2018

Good sharing.




Reply With Quote
(#4)
Old
Vallavaan123's Avatar
Vallavaan123 Vallavaan123 is offline
Premium Users
Points: 14,913, Level: 37
Points: 14,913, Level: 37 Points: 14,913, Level: 37 Points: 14,913, Level: 37
Level up: 8%, 737 Points needed
Level up: 8% Level up: 8% Level up: 8%
Activity: 92.9%
Activity: 92.9% Activity: 92.9% Activity: 92.9%

   
Join Date: Oct 2014
Posts: 4,500
Rep Power: 18
Vallavaan123 is a glorious beacon of lightVallavaan123 is a glorious beacon of lightVallavaan123 is a glorious beacon of lightVallavaan123 is a glorious beacon of lightVallavaan123 is a glorious beacon of lightVallavaan123 is a glorious beacon of light
UL: 17.45 tb DL: 499.29 gb Ratio: 35.79
Default 10-02-2018

Thanks fr the good share




Reply With Quote
(#5)
Old
Guna676 Guna676 is offline
TMR Member
Points: 1,213, Level: 9
Points: 1,213, Level: 9 Points: 1,213, Level: 9 Points: 1,213, Level: 9
Level up: 32%, 137 Points needed
Level up: 32% Level up: 32% Level up: 32%
Activity: 16.7%
Activity: 16.7% Activity: 16.7% Activity: 16.7%

   
Join Date: Oct 2014
Posts: 320
Rep Power: 6
Guna676 has a spectacular aura aboutGuna676 has a spectacular aura aboutGuna676 has a spectacular aura about
UL: 555.34 gb DL: 105.89 gb Ratio: 5.24
Default 10-02-2018

thank you sharing




Reply With Quote
(#6)
Old
MasssBabu's Avatar
MasssBabu MasssBabu is offline
TMR Member
Points: 59,439, Level: 75
Points: 59,439, Level: 75 Points: 59,439, Level: 75 Points: 59,439, Level: 75
Level up: 60%, 611 Points needed
Level up: 60% Level up: 60% Level up: 60%
Activity: 14.3%
Activity: 14.3% Activity: 14.3% Activity: 14.3%

I proudly released 132 torrents with 3569 snatches
 
 
Join Date: Sep 2015
Posts: 10,330
Rep Power: 82
MasssBabu has a reputation beyond repute
MasssBabu has a reputation beyond reputeMasssBabu has a reputation beyond reputeMasssBabu has a reputation beyond reputeMasssBabu has a reputation beyond reputeMasssBabu has a reputation beyond reputeMasssBabu has a reputation beyond reputeMasssBabu has a reputation beyond reputeMasssBabu has a reputation beyond reputeMasssBabu has a reputation beyond reputeMasssBabu has a reputation beyond reputeMasssBabu has a reputation beyond reputeMasssBabu has a reputation beyond reputeMasssBabu has a reputation beyond reputeMasssBabu has a reputation beyond reputeMasssBabu has a reputation beyond repute
UL: 3.97 tb DL: 217.23 gb Ratio: 18.72
My Mood: Cool
Default 10-02-2018

Thanks for the good share




Reply With Quote
(#7)
Old
Minnal's Avatar
Minnal Minnal is offline
Releaser
Points: 35,279, Level: 57
Points: 35,279, Level: 57 Points: 35,279, Level: 57 Points: 35,279, Level: 57
Level up: 86%, 171 Points needed
Level up: 86% Level up: 86% Level up: 86%
Activity: 21.4%
Activity: 21.4% Activity: 21.4% Activity: 21.4%

I proudly released 133 torrents with 1778 snatches
 
 
Join Date: Oct 2014
Posts: 4,749
Rep Power: 47
Minnal has a reputation beyond repute
Minnal has a reputation beyond reputeMinnal has a reputation beyond reputeMinnal has a reputation beyond reputeMinnal has a reputation beyond reputeMinnal has a reputation beyond repute
UL: 5.34 tb DL: 3.72 tb Ratio: 1.44
My Mood: Fine
Default 10-02-2018

Thanks for the good share




Reply With Quote
(#8)
Old
raj&raj raj&raj is offline
TMR Member
Points: 1,401, Level: 10
Points: 1,401, Level: 10 Points: 1,401, Level: 10 Points: 1,401, Level: 10
Level up: 26%, 149 Points needed
Level up: 26% Level up: 26% Level up: 26%
Activity: 7.1%
Activity: 7.1% Activity: 7.1% Activity: 7.1%

   
Join Date: Mar 2016
Posts: 201
Rep Power: 4
raj&raj has a spectacular aura aboutraj&raj has a spectacular aura about
UL: 7.32 gb DL: 9.24 gb Ratio: 0.79
Default 10-02-2018

Quote:
Originally Posted by Subbu2000 View Post
Keni (2018) - Parthiban in - Tamil - MP3 Songs - CBR - 320 kbps - Team TMR




MOVIE INFO

Starring: Parthiban, Nassar, Jayapradha, Revathi
Directed by: M.A. Nishad
Music by: M. Jayachandran
Produced by:
Country: India
Language: Tamil
Year: 2018


MEDIA INFO

Code:
Keni (2018) - Parthiban in -  Tamil - MP3 Songs - CBR - 320 kbps - Team TMR\Kalayum Meghame.mp3
Format                                   : MPEG Audio
File size                                : 8.90 MiB
Duration                                 : 3 min 53 s
Overall bit rate mode                    : Constant
Overall bit rate                         : 320 kb/s
Writing library                          : LAME3.99r

Audio
Format                                   : MPEG Audio
Format version                           : Version 1
Format profile                           : Layer 3
Mode                                     : Joint stereo
Mode extension                           : MS Stereo
Duration                                 : 3 min 53 s
Bit rate mode                            : Constant
Bit rate                                 : 320 kb/s
Channel(s)                               : 2 channels
Sampling rate                            : 44.1 kHz
Compression mode                         : Lossy
Stream size                              : 8.90 MiB (100%)
Writing library                          : LAME3.99r
Encoding settings                        : -m j -V 4 -q 3 -lowpass 20.5
TRACK INFO



Vedithidum Bhoomi
Artists: Vijay Yesudas

Kalayum Meghame
Artists: Sithara Krishnakumar

Ayya Sami
Artists: K.J. Yesudas, S. P. Balasubrahmanyam
Mass..........




Reply With Quote
(#9)
Old
Jishnumale Jishnumale is offline
TMR Member
Points: 1,318, Level: 9
Points: 1,318, Level: 9 Points: 1,318, Level: 9 Points: 1,318, Level: 9
Level up: 84%, 32 Points needed
Level up: 84% Level up: 84% Level up: 84%
Activity: 0%
Activity: 0% Activity: 0% Activity: 0%

   
Join Date: Feb 2015
Posts: 179
Rep Power: 4
Jishnumale is an unknown quantity at this point
UL: 5.10 gb DL: 5.73 gb Ratio: 0.89
Default 10-02-2018

thanks for updates




Reply With Quote
(#10)
Old
Saski's Avatar
Saski Saski is offline
Media Blogger
Points: 55,240, Level: 72
Points: 55,240, Level: 72 Points: 55,240, Level: 72 Points: 55,240, Level: 72
Level up: 80%, 310 Points needed
Level up: 80% Level up: 80% Level up: 80%
Activity: 78.6%
Activity: 78.6% Activity: 78.6% Activity: 78.6%

I proudly released 155 torrents with 935 snatches
 
 
Join Date: Oct 2014
Posts: 12,315
Rep Power: 62
Saski has a reputation beyond repute
Saski has a reputation beyond reputeSaski has a reputation beyond reputeSaski has a reputation beyond reputeSaski has a reputation beyond reputeSaski has a reputation beyond repute
UL: 133.83 gb DL: 34.34 gb Ratio: 3.90
My Mood: Amused
Default 10-02-2018

Thanks for sharing





செல்வரின் வரவேற்பு நிறமிருந்தும் மணமில்லா காகிதப்பூ




Reply With Quote
Reply

Thread Tools
Display Modes

Similar Threads
Thread Thread Starter Forum Replies Last Post
Tik Tik Tik (2018) - Jayam Ravi in - Tamil - MP3 Songs - CBR - 320 kbps - Team TMR Subbu2000 New Movie Albums 47 06-07-2018 02:31 PM
Irumbu Thirai (2018) - Vishal in - Tamil - MP3 Songs - CBR - 320 kbps - Team TMR Subbu2000 New Movie Albums 29 06-05-2018 10:23 AM
Savarakathi (2018) - Director Ram in - Tamil - MP3 Songs - CBR - 320 kbps - Team TMR Subbu2000 New Movie Albums 18 06-05-2018 10:19 AM
Kalakalappu 2 (2018) - Sundhar.C in -i Tunes Rip - Tamil - MP3 Songs - CBR - 320 kbps - Team TMR Subbu2000 New Movie Albums 19 18-03-2018 05:55 PM
Pakka (2018) - Vikram Prabhu in - Tamil - MP3 Songs - CBR - 320 kbps - Team TMR Subbu2000 New Movie Albums 26 15-02-2018 05:12 PM

Posting Rules
You may not post new threads
You may not post replies
You may not post attachments
You may not edit your posts

BB code is On
Smilies are On
[IMG] code is On
HTML code is Off




Powered by vBulletin® Version 3.8.7
Copyright ©2000 - 2018, vBulletin Solutions, Inc.
vBulletin Skin developed by: vBStyles.com
Ad Management plugin by RedTyger