TAMILMOVIEROCKERS Facebook Official
Ticket Torrents
Go Back   TAMILMOVIEROCKERS > -: Tamil Releases :- > Tamil Music Videos > Hi Def & Upscales
Reload this Page Gulaebaghavali (2018) - Video songs - 1080p @ Full HD @ Team TMR
(#1)
Old
Kvikkraman85 Kvikkraman85 is offline
TMR Member
Points: 7,312, Level: 25
Points: 7,312, Level: 25 Points: 7,312, Level: 25 Points: 7,312, Level: 25
Level up: 53%, 238 Points needed
Level up: 53% Level up: 53% Level up: 53%
Activity: 33.3%
Activity: 33.3% Activity: 33.3% Activity: 33.3%

I proudly released 70 torrents with 746 snatches
 
 
Join Date: Apr 2016
Posts: 787
Rep Power: 17
Kvikkraman85 has much to be proud ofKvikkraman85 has much to be proud ofKvikkraman85 has much to be proud ofKvikkraman85 has much to be proud ofKvikkraman85 has much to be proud ofKvikkraman85 has much to be proud ofKvikkraman85 has much to be proud ofKvikkraman85 has much to be proud ofKvikkraman85 has much to be proud ofKvikkraman85 has much to be proud of
UL: 532.18 gb DL: 602.00 gb Ratio: 0.88
My Mood: Cheerful
MP4 Gulaebaghavali (2018) - Video songs - 1080p @ Full HD @ Team TMR - 30-01-2018

Gulaebaghavali (2018) - Video songs - 1080p @ Full HD @ Team TMR




Code:
General
Complete name                            : 2018 - 1080p\Gulaebaghavali (2018) - 1080p @ Full HD @ Team TMR\Seramal Ponal - Gulaebaghavali (2018) - 1080p.mp4
Format                                   : MPEG-4
Format profile                           : Base Media
Codec ID                                 : isom (isom/iso2/avc1/mp41)
File size                                : 152 MiB
Duration                                 : 5 min 35 s
Overall bit rate                         : 3 801 kb/s
Writing application                      : Lavf57.52.100

Video
ID                                       : 1
Format                                   : AVC
Format/Info                              : Advanced Video Codec
Format profile                           : High@L4
Format settings                          : CABAC / 3 Ref Frames
Format settings, CABAC                   : Yes
Format settings, RefFrames               : 3 frames
Codec ID                                 : avc1
Codec ID/Info                            : Advanced Video Coding
Duration                                 : 5 min 35 s
Bit rate                                 : 3 540 kb/s
Width                                    : 1 920 pixels
Height                                   : 1 080 pixels
Display aspect ratio                     : 16:9
Frame rate mode                          : Constant
Frame rate                               : 24.000 FPS
Color space                              : YUV
Chroma subsampling                       : 4:2:0
Bit depth                                : 8 bits
Scan type                                : Progressive
Bits/(Pixel*Frame)                       : 0.071
Stream size                              : 142 MiB (93%)
Color range                              : Limited
Color primaries                          : BT.709
Transfer characteristics                 : BT.709
Matrix coefficients                      : BT.709

Audio
ID                                       : 2
Format                                   : AAC
Format/Info                              : Advanced Audio Codec
Format profile                           : LC
Codec ID                                 : mp4a-40-2
Duration                                 : 5 min 35 s
Bit rate mode                            : Constant
Bit rate                                 : 256 kb/s
Channel(s)                               : 2 channels
Channel positions                        : Front: L R
Sampling rate                            : 48.0 kHz
Frame rate                               : 46.875 FPS (1024 SPF)
Compression mode                         : Lossy
Stream size                              : 10.2 MiB (7%)
Default                                  : Yes
Alternate group                          : 1

Guleba - Gulaebaghavali (2018) - 1080p

Heartukulla - Gulaebaghavali (2018) - 1080p

Seramal Ponal - Gulaebaghavali (2018) - 1080p





Attached Files
File Type: torrent Gulaebaghavali (2018) - 1080p @ Full HD @ Team TMR.torrent (15.7 KB, 50 views), size: 389.48 mb, completed: 18
Name Size
Name Completed % Left Uploaded Downloaded Last Announce




The Following 10 Users Say Thank You to Kvikkraman85 For This Useful Post:

5 Lastest Threads by Kvikkraman85
Thread Forum Last Poster Replies Views Last Post
Tamil Video songs 1080p HQ - With Tamil Subs Hi Def & Upscales Mdhanasekar 45 1203 24-02-2018 08:42 AM
Old Hits - Video songs 1080p - 5.1 Extreme... Hi Def & Upscales Arukavi 31 1024 23-02-2018 04:13 AM
Sketch (2018) - Video songs - 1080p @ Full HD @... Hi Def & Upscales Achick 16 368 22-02-2018 01:53 PM
Thaarumaaru - Kalakalappu 2 (2018) - Video song... Hi Def & Upscales Mdhanasekar 21 381 22-02-2018 07:04 AM
Karakudi Ilavarasi - Kalakalappu 2 (2018) - Video... Hi Def & Upscales Acekingdom 21 446 21-02-2018 02:54 AM

(#2)
Old
Pictliker's Avatar
Pictliker Pictliker is offline
Releaser
Points: 17,661, Level: 40
Points: 17,661, Level: 40 Points: 17,661, Level: 40 Points: 17,661, Level: 40
Level up: 52%, 389 Points needed
Level up: 52% Level up: 52% Level up: 52%
Activity: 21.4%
Activity: 21.4% Activity: 21.4% Activity: 21.4%

I proudly released 63 torrents with 1050 snatches
 
 
Join Date: Sep 2015
Posts: 2,419
Rep Power: 32
Pictliker has a reputation beyond reputePictliker has a reputation beyond reputePictliker has a reputation beyond reputePictliker has a reputation beyond reputePictliker has a reputation beyond reputePictliker has a reputation beyond reputePictliker has a reputation beyond reputePictliker has a reputation beyond reputePictliker has a reputation beyond reputePictliker has a reputation beyond reputePictliker has a reputation beyond reputePictliker has a reputation beyond reputePictliker has a reputation beyond reputePictliker has a reputation beyond repute
UL: 5.53 tb DL: 4.39 tb Ratio: 1.26
My Mood: Relaxed
Default 30-01-2018

thanks for 1080p




Follow Your Heart....But
Take Your Brain With You.....




Reply With Quote
(#3)
Old
Vallavaan123's Avatar
Vallavaan123 Vallavaan123 is offline
Premium Users
Points: 15,177, Level: 37
Points: 15,177, Level: 37 Points: 15,177, Level: 37 Points: 15,177, Level: 37
Level up: 41%, 473 Points needed
Level up: 41% Level up: 41% Level up: 41%
Activity: 92.9%
Activity: 92.9% Activity: 92.9% Activity: 92.9%

   
Join Date: Oct 2014
Posts: 4,573
Rep Power: 18
Vallavaan123 is a glorious beacon of lightVallavaan123 is a glorious beacon of lightVallavaan123 is a glorious beacon of lightVallavaan123 is a glorious beacon of lightVallavaan123 is a glorious beacon of lightVallavaan123 is a glorious beacon of light
UL: 19.51 tb DL: 499.29 gb Ratio: 40.02
Default 30-01-2018

Thanks fr the good share




Reply With Quote
(#4)
Old
Anonymousww945 Anonymousww945 is offline
TMR Member
Points: 537, Level: 5
Points: 537, Level: 5 Points: 537, Level: 5 Points: 537, Level: 5
Level up: 87%, 13 Points needed
Level up: 87% Level up: 87% Level up: 87%
Activity: 0%
Activity: 0% Activity: 0% Activity: 0%

   
Join Date: Sep 2017
Posts: 53
Rep Power: 2
Anonymousww945 is an unknown quantity at this point
UL: 9.84 gb DL: 8.37 gb Ratio: 1.18
Default 30-01-2018

Quote:
Originally Posted by Kvikkraman85 View Post
Gulaebaghavali (2018) - Video songs - 1080p @ Full HD @ Team TMR




Code:
General
Complete name                            : 2018 - 1080p\Gulaebaghavali (2018) - 1080p @ Full HD @ Team TMR\Seramal Ponal - Gulaebaghavali (2018) - 1080p.mp4
Format                                   : MPEG-4
Format profile                           : Base Media
Codec ID                                 : isom (isom/iso2/avc1/mp41)
File size                                : 152 MiB
Duration                                 : 5 min 35 s
Overall bit rate                         : 3 801 kb/s
Writing application                      : Lavf57.52.100

Video
ID                                       : 1
Format                                   : AVC
Format/Info                              : Advanced Video Codec
Format profile                           : High@L4
Format settings                          : CABAC / 3 Ref Frames
Format settings, CABAC                   : Yes
Format settings, RefFrames               : 3 frames
Codec ID                                 : avc1
Codec ID/Info                            : Advanced Video Coding
Duration                                 : 5 min 35 s
Bit rate                                 : 3 540 kb/s
Width                                    : 1 920 pixels
Height                                   : 1 080 pixels
Display aspect ratio                     : 16:9
Frame rate mode                          : Constant
Frame rate                               : 24.000 FPS
Color space                              : YUV
Chroma subsampling                       : 4:2:0
Bit depth                                : 8 bits
Scan type                                : Progressive
Bits/(Pixel*Frame)                       : 0.071
Stream size                              : 142 MiB (93%)
Color range                              : Limited
Color primaries                          : BT.709
Transfer characteristics                 : BT.709
Matrix coefficients                      : BT.709

Audio
ID                                       : 2
Format                                   : AAC
Format/Info                              : Advanced Audio Codec
Format profile                           : LC
Codec ID                                 : mp4a-40-2
Duration                                 : 5 min 35 s
Bit rate mode                            : Constant
Bit rate                                 : 256 kb/s
Channel(s)                               : 2 channels
Channel positions                        : Front: L R
Sampling rate                            : 48.0 kHz
Frame rate                               : 46.875 FPS (1024 SPF)
Compression mode                         : Lossy
Stream size                              : 10.2 MiB (7%)
Default                                  : Yes
Alternate group                          : 1

Guleba - Gulaebaghavali (2018) - 1080p

Heartukulla - Gulaebaghavali (2018) - 1080p

Seramal Ponal - Gulaebaghavali (2018) - 1080p





Awesome Post . Thank you bro




Reply With Quote
(#5)
Old
MasssBabu's Avatar
MasssBabu MasssBabu is offline
TMR Member
Points: 59,696, Level: 75
Points: 59,696, Level: 75 Points: 59,696, Level: 75 Points: 59,696, Level: 75
Level up: 77%, 354 Points needed
Level up: 77% Level up: 77% Level up: 77%
Activity: 7.1%
Activity: 7.1% Activity: 7.1% Activity: 7.1%

I proudly released 132 torrents with 3571 snatches
 
 
Join Date: Sep 2015
Posts: 10,331
Rep Power: 83
MasssBabu has a reputation beyond repute
MasssBabu has a reputation beyond reputeMasssBabu has a reputation beyond reputeMasssBabu has a reputation beyond reputeMasssBabu has a reputation beyond reputeMasssBabu has a reputation beyond reputeMasssBabu has a reputation beyond reputeMasssBabu has a reputation beyond reputeMasssBabu has a reputation beyond reputeMasssBabu has a reputation beyond reputeMasssBabu has a reputation beyond reputeMasssBabu has a reputation beyond reputeMasssBabu has a reputation beyond reputeMasssBabu has a reputation beyond reputeMasssBabu has a reputation beyond reputeMasssBabu has a reputation beyond repute
UL: 3.97 tb DL: 217.23 gb Ratio: 18.72
My Mood: Cool
Default 30-01-2018

Thanks for the good share




Reply With Quote
(#6)
Old
Prince Prince is offline
TMR Member
Points: 1,709, Level: 11
Points: 1,709, Level: 11 Points: 1,709, Level: 11 Points: 1,709, Level: 11
Level up: 53%, 141 Points needed
Level up: 53% Level up: 53% Level up: 53%
Activity: 16.7%
Activity: 16.7% Activity: 16.7% Activity: 16.7%

   
Join Date: Oct 2014
Posts: 337
Rep Power: 4
Prince will become famous soon enough
UL: 795.97 gb DL: 864.79 gb Ratio: 0.92
Default 30-01-2018

Thanks fr the good share




Reply With Quote
(#7)
Old
Justforcare Justforcare is offline
TMR Member
Points: 2,992, Level: 15
Points: 2,992, Level: 15 Points: 2,992, Level: 15 Points: 2,992, Level: 15
Level up: 81%, 58 Points needed
Level up: 81% Level up: 81% Level up: 81%
Activity: 85.7%
Activity: 85.7% Activity: 85.7% Activity: 85.7%

   
Join Date: Jan 2015
Posts: 1,550
Rep Power: 8
Justforcare will become famous soon enoughJustforcare will become famous soon enough
UL: 2.73 tb DL: 2.66 tb Ratio: 1.03
Default 30-01-2018

Thanks lot




Reply With Quote
(#8)
Old
Pandian_mani Pandian_mani is offline
TMR Member
Points: 1,520, Level: 10
Points: 1,520, Level: 10 Points: 1,520, Level: 10 Points: 1,520, Level: 10
Level up: 85%, 30 Points needed
Level up: 85% Level up: 85% Level up: 85%
Activity: 7.1%
Activity: 7.1% Activity: 7.1% Activity: 7.1%

   
Join Date: Jul 2015
Posts: 234
Rep Power: 4
Pandian_mani will become famous soon enough
UL: 315.86 gb DL: 128.78 gb Ratio: 2.45
Default 30-01-2018

Thanks for sharing




Reply With Quote
(#9)
Old
Bluray_123 Bluray_123 is offline
TMR Member
Points: 9,428, Level: 29
Points: 9,428, Level: 29 Points: 9,428, Level: 29 Points: 9,428, Level: 29
Level up: 13%, 522 Points needed
Level up: 13% Level up: 13% Level up: 13%
Activity: 21.4%
Activity: 21.4% Activity: 21.4% Activity: 21.4%

I proudly released 2 torrents with 28 snatches
 
 
Join Date: Oct 2014
Posts: 1,802
Rep Power: 15
Bluray_123 is a splendid one to beholdBluray_123 is a splendid one to beholdBluray_123 is a splendid one to beholdBluray_123 is a splendid one to beholdBluray_123 is a splendid one to beholdBluray_123 is a splendid one to beholdBluray_123 is a splendid one to behold
UL: 2.20 tb DL: 2.16 tb Ratio: 1.02
Default 30-01-2018

thanks for 1080p




Reply With Quote
(#10)
Old
Khaderenjoy Khaderenjoy is offline
TMR Member
Points: 1,247, Level: 9
Points: 1,247, Level: 9 Points: 1,247, Level: 9 Points: 1,247, Level: 9
Level up: 49%, 103 Points needed
Level up: 49% Level up: 49% Level up: 49%
Activity: 28.6%
Activity: 28.6% Activity: 28.6% Activity: 28.6%

   
Join Date: Oct 2014
Posts: 27
Rep Power: 4
Khaderenjoy is on a distinguished road
UL: 5.60 gb DL: 2.14 gb Ratio: 2.61
Default 30-01-2018

Thanks bro




Reply With Quote
Reply

Tags
gulaebaghavali, prabhudeva, tmr

Thread Tools
Display Modes

Similar Threads
Thread Thread Starter Forum Replies Last Post
Tik Tik Tik (2018) - Jayam Ravi in - Tamil - MP3 Songs - CBR - 320 kbps - Team TMR Subbu2000 New Movie Albums 48 2 Weeks Ago 09:09 AM
Savarakathi (2018) - Director Ram in - Tamil - MP3 Songs - CBR - 320 kbps - Team TMR Subbu2000 New Movie Albums 18 06-05-2018 10:19 AM
Gulaebaghavali (2017) - Prabhu Deva in - Tamil - MP3 Songs - CBR - 320 kbps - Team TMR Subbu2000 New Movie Albums 45 29-03-2018 07:48 AM
Pakka (2018) - Vikram Prabhu in - Tamil - MP3 Songs - CBR - 320 kbps - Team TMR Subbu2000 New Movie Albums 26 15-02-2018 05:12 PM
Gulaebaghavali (2018) - Guleba - Video Song - FullHD - 1080p - Team TMR Subbu2000 Hi Def & Upscales 19 07-02-2018 03:05 PM

Posting Rules
You may not post new threads
You may not post replies
You may not post attachments
You may not edit your posts

BB code is On
Smilies are On
[IMG] code is On
HTML code is Off




Powered by vBulletin® Version 3.8.7
Copyright ©2000 - 2018, vBulletin Solutions, Inc.
vBulletin Skin developed by: vBStyles.com
Ad Management plugin by RedTyger