TAMILMOVIEROCKERS
Ticket Torrents
Go Back   TAMILMOVIEROCKERS > -: Other Releases :- > Hindi Releases - (Free Leech) > Web HD/ Rips
Reload this Page Rabhasa 2014 (Telugu) 720p HDRip x264 AC3 5.1
Reply
 
Thread Tools Display Modes
(#11)
Old
Oktober Oktober is offline
New TMR'ian
Points: 1,044, Level: 8
Points: 1,044, Level: 8 Points: 1,044, Level: 8 Points: 1,044, Level: 8
Level up: 47%, 106 Points needed
Level up: 47% Level up: 47% Level up: 47%
Activity: 0%
Activity: 0% Activity: 0% Activity: 0%

I proudly released 1 torrents with 0 snatches
 
 
Join Date: Aug 2016
Posts: 36
Rep Power: 3
Oktober is an unknown quantity at this point
UL: 409.85 gb DL: 8.01 gb Ratio: 51.19
Default 30th-August-2016

Thanks for Sharing




Reply With Quote
(#12)
Old
Sreeramvarier Sreeramvarier is offline
New TMR'ian
Points: 75, Level: 1
Points: 75, Level: 1 Points: 75, Level: 1 Points: 75, Level: 1
Level up: 25%, 75 Points needed
Level up: 25% Level up: 25% Level up: 25%
Activity: 0%
Activity: 0% Activity: 0% Activity: 0%

   
Join Date: Oct 2016
Posts: 5
Rep Power: 3
Sreeramvarier is an unknown quantity at this point
UL: 5.00 gb DL: 0.00 b Ratio: -
My Mood: Cool
Default 12th-December-2016

Thanks for sharing




Reply With Quote
(#13)
Old
Stshahin's Avatar
Stshahin Stshahin is offline
New TMR'ian
Points: 294, Level: 3
Points: 294, Level: 3 Points: 294, Level: 3 Points: 294, Level: 3
Level up: 44%, 56 Points needed
Level up: 44% Level up: 44% Level up: 44%
Activity: 0%
Activity: 0% Activity: 0% Activity: 0%

   
Join Date: Mar 2017
Posts: 12
Rep Power: 2
Stshahin is an unknown quantity at this point
UL: 5.00 gb DL: 0.00 b Ratio: -
Default 22nd-March-2017

Rabhasa
Rabhasa
Rabhasa
Rabhasa




Reply With Quote
(#14)
Old
MasssBabu's Avatar
MasssBabu MasssBabu is offline
New TMR'ian
Points: 60,613, Level: 76
Points: 60,613, Level: 76 Points: 60,613, Level: 76 Points: 60,613, Level: 76
Level up: 36%, 1,037 Points needed
Level up: 36% Level up: 36% Level up: 36%
Activity: 16.7%
Activity: 16.7% Activity: 16.7% Activity: 16.7%

I proudly released 132 torrents with 3582 snatches
 
 
Join Date: Sep 2015
Posts: 10,361
Rep Power: 83
MasssBabu has a reputation beyond repute
MasssBabu has a reputation beyond reputeMasssBabu has a reputation beyond reputeMasssBabu has a reputation beyond reputeMasssBabu has a reputation beyond reputeMasssBabu has a reputation beyond reputeMasssBabu has a reputation beyond reputeMasssBabu has a reputation beyond reputeMasssBabu has a reputation beyond reputeMasssBabu has a reputation beyond reputeMasssBabu has a reputation beyond reputeMasssBabu has a reputation beyond reputeMasssBabu has a reputation beyond reputeMasssBabu has a reputation beyond reputeMasssBabu has a reputation beyond reputeMasssBabu has a reputation beyond repute
UL: 3.99 tb DL: 217.23 gb Ratio: 18.79
My Mood: Cool
Default 25th-April-2017

Thanks for the share




Reply With Quote
(#15)
Old
Subbu2000 Subbu2000 is offline
TMR Member
Points: 30,432, Level: 53
Points: 30,432, Level: 53 Points: 30,432, Level: 53 Points: 30,432, Level: 53
Level up: 62%, 418 Points needed
Level up: 62% Level up: 62% Level up: 62%
Activity: 14.3%
Activity: 14.3% Activity: 14.3% Activity: 14.3%

I proudly released 38 torrents with 1333 snatches
 
 
Join Date: Feb 2017
Posts: 4,558
Rep Power: 46
Subbu2000 has a reputation beyond repute
Subbu2000 has a reputation beyond reputeSubbu2000 has a reputation beyond reputeSubbu2000 has a reputation beyond reputeSubbu2000 has a reputation beyond reputeSubbu2000 has a reputation beyond reputeSubbu2000 has a reputation beyond repute
UL: 1.14 tb DL: 9.77 gb Ratio: 119.45
My Mood: Cheeky
Default 6th-March-2018

good one




Reply With Quote
(#16)
Old
Slimsenthil007 Slimsenthil007 is offline
TMR Member
Points: 879, Level: 7
Points: 879, Level: 7 Points: 879, Level: 7 Points: 879, Level: 7
Level up: 65%, 71 Points needed
Level up: 65% Level up: 65% Level up: 65%
Activity: 0%
Activity: 0% Activity: 0% Activity: 0%

   
Join Date: Nov 2016
Posts: 142
Rep Power: 3
Slimsenthil007 is an unknown quantity at this point
UL: 5.03 gb DL: 6.95 gb Ratio: 0.72
My Mood: Cool
Default 13th-May-2018

Nice share




Reply With Quote
(#17)
Old
Bluraydvd Bluraydvd is offline
New TMR'ian
Points: 777, Level: 7
Points: 777, Level: 7 Points: 777, Level: 7 Points: 777, Level: 7
Level up: 14%, 173 Points needed
Level up: 14% Level up: 14% Level up: 14%
Activity: 0%
Activity: 0% Activity: 0% Activity: 0%

   
Join Date: Oct 2016
Posts: 15
Rep Power: 3
Bluraydvd is an unknown quantity at this point
UL: 5.00 gb DL: 1.96 gb Ratio: 2.55
Default 31st-May-2018

Quote:
Originally Posted by R3al_Star View Post

Rabhasa 2014 (Telugu) 720p HDRip x264 AC3 5.1






www.imdb.com/title/tt3916762/

English Subtitles Included

Code:

Complete name                            : Rabhasa 2014 (Telugu) 720p HDRip x264 AC3 5.1
Format                                   : Matroska
Format version                           : Version 4 / Version 2
File size                                : 1.93 GiB
Duration                                 : 2h 22mn
Overall bit rate                         : 1 950 Kbps

Video
ID                                       : 1
Format                                   : AVC
Format/Info                              : Advanced Video Codec
Format profile                           : High@L4.1
Format settings, CABAC                   : Yes
Format settings, ReFrames                : 8 frames
Codec ID                                 : V_MPEG4/ISO/AVC
Duration                                 : 2h 22mn
Bit rate                                 : 1 564 Kbps
Width                                    : 1 280 pixels
Height                                   : 544 pixels
Display aspect ratio                     : 2.35:1
Frame rate mode                          : Constant
Frame rate                               : 25.000 fps
Color space                              : YUV
Chroma subsampling                       : 4:2:0
Bit depth                                : 8 bits
Scan type                                : Progressive
Bits/(Pixel*Frame)                       : 0.090
Stream size                              : 1.51 GiB (78%)
Writing library                          : x264 core 144 r2525 40bb568

Audio
ID                                       : 2
Format                                   : AC-3
Format/Info                              : Audio Coding 3
Mode extension                           : CM (complete main)
Format settings, Endianness              : Big
Codec ID                                 : A_AC3
Duration                                 : 2h 22mn
Bit rate mode                            : Constant
Bit rate                                 : 384 Kbps
Channel count                            : 6 channels
Channel positions                        : Front: L C R, Side: L R, LFE
Sampling rate                            : 48.0 KHz
Bit depth                                : 16 bits
Compression mode                         : Lossy
Stream size                              : 390 MiB (20%) 
Language                                 : Telugu
Default                                  : Yes
Forced                                   : No

Text
ID                                       : 3
Format                                   : UTF-8
Codec ID                                 : S_TEXT/UTF8
Codec ID/Info                            : UTF-8 Plain Text 
Language                                 : English
Default                                  : Yes
Forced                                   : No












Thanks for sharing




Reply With Quote
(#18)
Old
Bellnagu61 Bellnagu61 is offline
New TMR'ian
Points: 577, Level: 6
Points: 577, Level: 6 Points: 577, Level: 6 Points: 577, Level: 6
Level up: 14%, 173 Points needed
Level up: 14% Level up: 14% Level up: 14%
Activity: 0%
Activity: 0% Activity: 0% Activity: 0%

   
Join Date: Jul 2017
Posts: 79
Rep Power: 2
Bellnagu61 is an unknown quantity at this point
UL: 5.59 gb DL: 7.85 gb Ratio: 0.71
Default 1st-July-2018

Good show thanks




Reply

Thread Tools
Display Modes

Similar Threads
Thread Thread Starter Forum Replies Last Post
Rabhasa (2014) - WEBHD 1080P - x264 - AC3 5.1 - ESUB Jk9640 Web HD/ Rips 15 25th-August-2018 09:24 AM

Posting Rules
You may not post new threads
You may not post replies
You may not post attachments
You may not edit your posts

BB code is On
Smilies are On
[IMG] code is On
HTML code is Off




Powered by vBulletin® Version 3.8.7
Copyright ©2000 - 2018, vBulletin Solutions, Inc.
vBulletin Skin developed by: vBStyles.com
Ad Management plugin by RedTyger