TAMILMOVIEROCKERS Facebook Official
Ticket Torrents
Go Back   TAMILMOVIEROCKERS > -: Other Releases :- > Telugu Releases - (Free Leech Except DVD-R) > BD/BR - Rips
Reload this Page Magadheera (2009) Telugu BluRay 1080p x264 LCPM 5.1 Untouched Telugu AUDIO (Hindi - Tamil -2.0 ) ESubs
(#1)
Old
Seed Box Seed Box is offline
Banned
Points: 1,126, Level: 8
Points: 1,126, Level: 8 Points: 1,126, Level: 8 Points: 1,126, Level: 8
Level up: 88%, 24 Points needed
Level up: 88% Level up: 88% Level up: 88%
Activity: 99.0%
Activity: 99.0% Activity: 99.0% Activity: 99.0%

I proudly released 13 torrents with 220 snatches
 
 
Join Date: Jan 2017
Posts: 146
Rep Power: 0
Seed Box will become famous soon enough
UL: 454.09 gb DL: 17.10 gb Ratio: 26.56
My Mood: Cool
BDRip Magadheera (2009) Telugu BluRay 1080p x264 LCPM 5.1 Untouched Telugu AUDIO (Hindi - Tamil -2.0 ) ESubs - 15-03-2017

Magadheera (2009) Telugu BluRay 1080p x264 LCPM 5.1 UNTOUCHED Telugu Audio (Hindi - Tamil -2.0) ESubs


Requested Share DediCate To Oru Jeevan

















Code:
General
Complete name                            : Magadheera (2009) Telugu BluRay 1080p x264 LCPM 5.1 UNTOUCHED TELUGU AUDIO (HINDI - TAMIL -2.0 ) ESubs...mkv
Format                                   : Matroska
Format version                           : Version 4 / Version 2
File size                                : 12.6 GiB
Duration                                 : 2 h 44 min
Overall bit rate mode                    : Variable
Overall bit rate                         : 11.0 Mb/s
Encoded date                             : UTC 2017-03-15 13:04:09
Writing application                      : mkvmerge v9.5.0 ('Quiet Fire') 64bit
Writing library                          : libebml v1.3.4 + libmatroska v1.4.5

Video
ID                                       : 2
Format                                   : AVC
Format/Info                              : Advanced Video Codec
Format profile                           : High@L4.1
Format settings, CABAC                   : Yes
Format settings, ReFrames                : 5 frames
Codec ID                                 : V_MPEG4/ISO/AVC
Duration                                 : 2 h 44 min
Bit rate mode                            : Variable
Bit rate                                 : 3 359 kb/s
Maximum bit rate                         : 40.0 Mb/s
Width                                    : 1 920 pixels
Height                                   : 816 pixels
Display aspect ratio                     : 2.35:1
Frame rate mode                          : Constant
Frame rate                               : 24.000 FPS
Color space                              : YUV
Chroma subsampling                       : 4:2:0
Bit depth                                : 8 bits
Scan type                                : Progressive
Bits/(Pixel*Frame)                       : 0.089
Stream size                              : 3.86 GiB (31%)
Language                                 : Telugu
Default                                  : Yes
Forced                                   : No
Color range                              : Limited
Color primaries                          : Generic film
Transfer characteristics                 : BT.709
Matrix coefficients                      : BT.709

Audio #1
ID                                       : 1
Format                                   : MPEG Audio
Format version                           : Version 1
Format profile                           : Layer 3
Codec ID                                 : A_MPEG/L3
Codec ID/Hint                            : MP3
Duration                                 : 2 h 44 min
Bit rate mode                            : Constant
Bit rate                                 : 128 kb/s
Channel(s)                               : 2 channels
Sampling rate                            : 44.1 kHz
Frame rate                               : 38.281 FPS (1152 spf)
Compression mode                         : Lossy
Stream size                              : 151 MiB (1%)
Writing library                          : LAME3.98r
Encoding settings                        : -m s -V 4 -q 3 -lowpass 17 -b 128
Default                                  : Yes
Forced                                   : No

Audio #2
ID                                       : 3
Format                                   : PCM
Codec ID                                 : A_PCM/INT/LIT
Duration                                 : 2 h 44 min
Bit rate mode                            : Constant
Bit rate                                 : 6 912 kb/s
Channel(s)                               : 6 channels
Sampling rate                            : 48.0 kHz
Frame rate                               : 200.000 FPS (240 spf)
Bit depth                                : 24 bits
Stream size                              : 7.94 GiB (63%)
Language                                 : Telugu
Default                                  : No
Forced                                   : No

Audio #3
ID                                       : 4
Format                                   : AC-3
Format/Info                              : Audio Coding 3
Mode extension                           : CM (complete main)
Format settings, Endianness              : Big
Codec ID                                 : A_AC3
Duration                                 : 2 h 44 min
Bit rate mode                            : Constant
Bit rate                                 : 448 kb/s
Channel(s)                               : 6 channels
Channel positions                        : Front: L C R, Side: L R, LFE
Sampling rate                            : 48.0 kHz
Frame rate                               : 31.250 FPS (1536 spf)
Bit depth                                : 16 bits
Compression mode                         : Lossy
Stream size                              : 527 MiB (4%)
Language                                 : Telugu
Default                                  : No
Forced                                   : No

Audio #4
ID                                       : 5
Format                                   : AC-3
Format/Info                              : Audio Coding 3
Mode extension                           : CM (complete main)
Format settings, Endianness              : Big
Codec ID                                 : A_AC3
Duration                                 : 2 h 44 min
Bit rate mode                            : Constant
Bit rate                                 : 96.0 kb/s
Channel(s)                               : 2 channels
Channel positions                        : Front: L R
Sampling rate                            : 44.1 kHz
Frame rate                               : 28.711 FPS (1536 spf)
Bit depth                                : 16 bits
Compression mode                         : Lossy
Stream size                              : 113 MiB (1%)
Default                                  : No
Forced                                   : No

Text #1
ID                                       : 6
Format                                   : PGS
Muxing mode                              : zlib
Codec ID                                 : S_HDMV/PGS
Codec ID/Info                            : Picture based subtitle format used on BDs/HD-DVDs
Duration                                 : 2 h 42 min
Bit rate                                 : 8 008 b/s
Count of elements                        : 2401
Stream size                              : 9.31 MiB (0%)
Language                                 : English
Default                                  : Yes
Forced                                   : No

Text #2
ID                                       : 7
Format                                   : PGS
Muxing mode                              : zlib
Codec ID                                 : S_HDMV/PGS
Codec ID/Info                            : Picture based subtitle format used on BDs/HD-DVDs
Duration                                 : 2 h 42 min
Bit rate                                 : 14.3 kb/s
Count of elements                        : 2414
Stream size                              : 16.7 MiB (0%)
Language                                 : English
Default                                  : No
Forced                                   : No

ENJOY THE UNTOUCHED LCPM 5.1 AUDIO EXPERIENCE WITH RIP & TEAM CONSIDER MY REQUEST SANGAMAM BD50
Attached Files
File Type: torrent Magadheera (2009) Telugu BluRay 1080p x264 LCPM 5.1 UNTOUCHED Telugu Audio (Hindi - Tamil -2.torrent (63.3 KB, 157 views), size: 12.60 gb, seeders: 1, completed: 65
Name Size
Name Completed % Left Uploaded Downloaded Last Announce

Last edited by Seed Box; 15-03-2017 at 03:08 PM.





5 Lastest Threads by Seed Box
Thread Forum Last Poster Replies Views Last Post
Yeman (2016) Tamil 480p Untouched HD DVD 1.4GB HC... Web HD/ Rips (Free Leech) Jekirushanthan 43 1260 29-03-2017 03:51 AM
Krishnam Vande Jagadgurum (2012) - Telugu - BD50... Reseed Seed Box 3 237 28-03-2017 07:53 AM
Son Of Satyamurthy (2015) - Telugu - BD50 - DTS... Reseed Sravanvarmak 2 211 28-03-2017 07:48 AM
Yaakkai (2017) Tamil - HDRip - XviD - MP3 - 700MB... Web Rips Saran 48 1420 17-03-2017 02:34 AM
Assassins Creed (2016) 720p BluRay Hindi - Eng -... BD/BR - Rips Subbu2000 17 599 16-03-2017 06:35 PM

(#2)
Old
Mersal@TMR's Avatar
Mersal@TMR Mersal@TMR is offline
Quality Releaser
Points: 48,888, Level: 68
Points: 48,888, Level: 68 Points: 48,888, Level: 68 Points: 48,888, Level: 68
Level up: 39%, 862 Points needed
Level up: 39% Level up: 39% Level up: 39%
Activity: 0%
Activity: 0% Activity: 0% Activity: 0%

I proudly released 307 torrents with 4337 snatches
 
 
Join Date: Oct 2014
Posts: 3,328
Rep Power: 75
Mersal@TMR has a reputation beyond reputeMersal@TMR has a reputation beyond repute
Mersal@TMR has a reputation beyond reputeMersal@TMR has a reputation beyond reputeMersal@TMR has a reputation beyond reputeMersal@TMR has a reputation beyond reputeMersal@TMR has a reputation beyond reputeMersal@TMR has a reputation beyond repute
UL: 2.11 tb DL: 1.93 tb Ratio: 1.09
My Mood: Angry
Default 15-03-2017

Thanks for the Requested Share...





All My Releases Only For 2 Days Seeding Don't Ask Reseeding




Reply With Quote
(#3)
Old
Sai Praneeth Sai Praneeth is offline
TMR Member

   
Join Date: Jul 2016
Posts: 227
Rep Power: 3
Sai Praneeth is an unknown quantity at this point
UL: 20.24 gb DL: 21.26 gb Ratio: 0.95
Default 15-03-2017

Thanks alot!!!




Reply With Quote
(#4)
Old
Drpss86 Drpss86 is offline
TMR Member
Points: 2,059, Level: 12
Points: 2,059, Level: 12 Points: 2,059, Level: 12 Points: 2,059, Level: 12
Level up: 70%, 91 Points needed
Level up: 70% Level up: 70% Level up: 70%
Activity: 0%
Activity: 0% Activity: 0% Activity: 0%

   
Join Date: Jan 2015
Posts: 439
Rep Power: 5
Drpss86 will become famous soon enoughDrpss86 will become famous soon enough
UL: 91.44 gb DL: 94.42 gb Ratio: 0.97
Default 15-03-2017

Thanks boss




Reply With Quote
(#5)
Old
Sskeerthi Sskeerthi is offline
TMR Member
Points: 3,528, Level: 17
Points: 3,528, Level: 17 Points: 3,528, Level: 17 Points: 3,528, Level: 17
Level up: 20%, 322 Points needed
Level up: 20% Level up: 20% Level up: 20%
Activity: 7.1%
Activity: 7.1% Activity: 7.1% Activity: 7.1%

   
Join Date: Sep 2015
Posts: 565
Rep Power: 6
Sskeerthi will become famous soon enoughSskeerthi will become famous soon enough
UL: 49.08 gb DL: 61.53 gb Ratio: 0.80
My Mood: Angelic
Default 15-03-2017

Thanks for the share




Reply With Quote
(#6)
Old
Daffodils Daffodils is offline
TMR Member
Points: 2,309, Level: 13
Points: 2,309, Level: 13 Points: 2,309, Level: 13 Points: 2,309, Level: 13
Level up: 53%, 141 Points needed
Level up: 53% Level up: 53% Level up: 53%
Activity: 0%
Activity: 0% Activity: 0% Activity: 0%

I proudly released 1 torrents with 21 snatches
 
 
Join Date: Oct 2014
Posts: 280
Rep Power: 5
Daffodils will become famous soon enoughDaffodils will become famous soon enough
UL: 8.18 tb DL: 491.43 gb Ratio: 17.05
Default 15-03-2017

Super Share




Reply With Quote
(#7)
Old
OreJeevan's Avatar
OreJeevan OreJeevan is offline
TMR Member
Points: 9,914, Level: 29
Points: 9,914, Level: 29 Points: 9,914, Level: 29 Points: 9,914, Level: 29
Level up: 94%, 36 Points needed
Level up: 94% Level up: 94% Level up: 94%
Activity: 7.1%
Activity: 7.1% Activity: 7.1% Activity: 7.1%

I proudly released 28 torrents with 751 snatches
 
 
Join Date: Nov 2014
Posts: 835
Rep Power: 15
OreJeevan has much to be proud ofOreJeevan has much to be proud ofOreJeevan has much to be proud ofOreJeevan has much to be proud ofOreJeevan has much to be proud ofOreJeevan has much to be proud ofOreJeevan has much to be proud ofOreJeevan has much to be proud of
UL: 1.97 tb DL: 1.27 tb Ratio: 1.55
My Mood: Relaxed
Default 15-03-2017

Thanks for the requested share!!








Reply With Quote
(#8)
Old
Thaai Thaai is offline
TMR Member
Points: 1,610, Level: 11
Points: 1,610, Level: 11 Points: 1,610, Level: 11 Points: 1,610, Level: 11
Level up: 20%, 240 Points needed
Level up: 20% Level up: 20% Level up: 20%
Activity: 0%
Activity: 0% Activity: 0% Activity: 0%

I proudly released 2 torrents with 27 snatches
 
 
Join Date: Oct 2015
Posts: 119
Rep Power: 3
Thaai is on a distinguished road
UL: 265.66 gb DL: 4.44 gb Ratio: 59.82
My Mood: Angelic
Default 15-03-2017

Thanks man, nice share.




Reply With Quote
(#9)
Old
Saski's Avatar
Saski Saski is offline
Media Blogger
Points: 55,744, Level: 73
Points: 55,744, Level: 73 Points: 55,744, Level: 73 Points: 55,744, Level: 73
Level up: 13%, 1,306 Points needed
Level up: 13% Level up: 13% Level up: 13%
Activity: 57.1%
Activity: 57.1% Activity: 57.1% Activity: 57.1%

I proudly released 155 torrents with 935 snatches
 
 
Join Date: Oct 2014
Posts: 12,366
Rep Power: 62
Saski has a reputation beyond repute
Saski has a reputation beyond reputeSaski has a reputation beyond reputeSaski has a reputation beyond reputeSaski has a reputation beyond reputeSaski has a reputation beyond repute
UL: 133.83 gb DL: 34.34 gb Ratio: 3.90
My Mood: Amused
Default 15-03-2017

Thanks for the share





செல்வரின் வரவேற்பு நிறமிருந்தும் மணமில்லா காகிதப்பூ




Reply With Quote
(#10)
Old
Prince Prince is offline
TMR Member
Points: 1,709, Level: 11
Points: 1,709, Level: 11 Points: 1,709, Level: 11 Points: 1,709, Level: 11
Level up: 53%, 141 Points needed
Level up: 53% Level up: 53% Level up: 53%
Activity: 16.7%
Activity: 16.7% Activity: 16.7% Activity: 16.7%

   
Join Date: Oct 2014
Posts: 337
Rep Power: 4
Prince will become famous soon enough
UL: 795.97 gb DL: 864.79 gb Ratio: 0.92
Default 15-03-2017

Thanks for the share




Reply With Quote
Reply

Thread Tools
Display Modes

Similar Threads
Thread Thread Starter Forum Replies Last Post
Gandhi (1982) 1080p BluRay x264 (Tamil-English-Hindi-Malayalam-Telugu) AC3 - Team TMR Rajivsm BD/BR - Rips 23 15-07-2018 03:30 PM
Ice Age Continental Drift [2012] 1080p BluRay Multi-Audio [Tamil][English][Hindi][Telugu] R3al_Star BD/BR/3D Rips 39 10-05-2018 10:17 AM
Balupu (2013) - [BD-Rip - 720p - x264 - Multi Audio (Tamil + Telugu + Hindi) - Mp3 - 950MB - E-Subs][LR] Lone Ranger BD/BR/3D Rips 5 30-01-2018 10:07 AM
Mirapakai (2011) - BDRip - 720p - x264 - Multi Audio [Hindi + Tamil + Telugu] TeaM ReleaseR TMR Ratio Boost 27 20-06-2017 07:17 PM
Ra One (2011) Bluray Rip 1080p - AC3 5.1 448Kbps(Untouched Audio) With Multi Audio[Tamil-Hindi] And E-SUB In Below 7 GB Pirateking Request 2 17-12-2014 10:48 AM

Posting Rules
You may not post new threads
You may not post replies
You may not post attachments
You may not edit your posts

BB code is On
Smilies are On
[IMG] code is On
HTML code is Off




Powered by vBulletin® Version 3.8.7
Copyright ©2000 - 2018, vBulletin Solutions, Inc.
vBulletin Skin developed by: vBStyles.com
Ad Management plugin by RedTyger