TAMILMOVIEROCKERS
Ticket Torrents
Go Back   TAMILMOVIEROCKERS > -: Other Releases :- > Malayalam Releases > BD/BR - Rips
Reload this Page Vikramadithyan (2014) - Blu-Ray - X264 - DTS - ESubs - 720P - 1.6GB -@Rockers@ -Team TMR
Reply
 
Thread Tools Display Modes
(#11)
Old
Mersal@TMR's Avatar
Mersal@TMR Mersal@TMR is offline
Quality Releaser
Points: 50,188, Level: 69
Points: 50,188, Level: 69 Points: 50,188, Level: 69 Points: 50,188, Level: 69
Level up: 32%, 962 Points needed
Level up: 32% Level up: 32% Level up: 32%
Activity: 0%
Activity: 0% Activity: 0% Activity: 0%

I proudly released 307 torrents with 4341 snatches
 
 
Join Date: Oct 2014
Posts: 3,331
Rep Power: 76
Mersal@TMR has a reputation beyond reputeMersal@TMR has a reputation beyond repute
Mersal@TMR has a reputation beyond reputeMersal@TMR has a reputation beyond reputeMersal@TMR has a reputation beyond reputeMersal@TMR has a reputation beyond reputeMersal@TMR has a reputation beyond reputeMersal@TMR has a reputation beyond repute
UL: 2.11 tb DL: 1.94 tb Ratio: 1.09
My Mood: Angry
Default Re: Vikramadithyan (2014) - Blu-Ray - X264 - DTS - ESubs - 720P - 1.6GB -@Rockers@ -Team TMR - 15th-November-2014

Thanks for the Share...





All My Releases Only For 2 Days Seeding Don't Ask Reseeding




Reply With Quote
(#12)
Old
Vallavaan123's Avatar
Vallavaan123 Vallavaan123 is offline
Premium Users
Points: 15,356, Level: 37
Points: 15,356, Level: 37 Points: 15,356, Level: 37 Points: 15,356, Level: 37
Level up: 64%, 294 Points needed
Level up: 64% Level up: 64% Level up: 64%
Activity: 50.0%
Activity: 50.0% Activity: 50.0% Activity: 50.0%

   
Join Date: Oct 2014
Posts: 4,605
Rep Power: 19
Vallavaan123 is a glorious beacon of lightVallavaan123 is a glorious beacon of lightVallavaan123 is a glorious beacon of lightVallavaan123 is a glorious beacon of lightVallavaan123 is a glorious beacon of lightVallavaan123 is a glorious beacon of light
UL: 19.61 tb DL: 499.29 gb Ratio: 40.21
Default Re: Vikramadithyan (2014) - Blu-Ray - X264 - DTS - ESubs - 720P - 1.6GB -@Rockers@ -Team TMR - 17th-November-2014

Thanks fr the share




Reply With Quote
(#13)
Old
Iamrishi4u Iamrishi4u is offline
New TMR'ian
Points: 260, Level: 3
Points: 260, Level: 3 Points: 260, Level: 3 Points: 260, Level: 3
Level up: 10%, 90 Points needed
Level up: 10% Level up: 10% Level up: 10%
Activity: 0%
Activity: 0% Activity: 0% Activity: 0%

   
Join Date: Aug 2015
Posts: 27
Rep Power: 4
Iamrishi4u is an unknown quantity at this point
UL: 5.32 gb DL: 0.00 b Ratio: -
Default 24th-August-2015

thankyou




Reply With Quote
(#14)
Old
Timtom Timtom is offline
New TMR'ian
Points: 771, Level: 7
Points: 771, Level: 7 Points: 771, Level: 7 Points: 771, Level: 7
Level up: 11%, 179 Points needed
Level up: 11% Level up: 11% Level up: 11%
Activity: 0%
Activity: 0% Activity: 0% Activity: 0%

   
Join Date: Apr 2015
Posts: 5
Rep Power: 4
Timtom is an unknown quantity at this point
UL: 5.48 gb DL: 6.89 gb Ratio: 0.79
Default 27th-August-2015

THanks for the release.




Reply With Quote
(#15)
Old
Moviecrow Moviecrow is offline
TMR Member
Points: 2,544, Level: 14
Points: 2,544, Level: 14 Points: 2,544, Level: 14 Points: 2,544, Level: 14
Level up: 32%, 206 Points needed
Level up: 32% Level up: 32% Level up: 32%
Activity: 0%
Activity: 0% Activity: 0% Activity: 0%

   
Join Date: Oct 2014
Posts: 217
Rep Power: 6
Moviecrow will become famous soon enoughMoviecrow will become famous soon enough
UL: 219.12 gb DL: 221.87 gb Ratio: 0.99
My Mood: Cheerful
Default 31st-August-2015

thankssssssss




Reply With Quote
(#16)
Old
Abey Abey is offline
TMR Member
Points: 1,687, Level: 11
Points: 1,687, Level: 11 Points: 1,687, Level: 11 Points: 1,687, Level: 11
Level up: 46%, 163 Points needed
Level up: 46% Level up: 46% Level up: 46%
Activity: 7.1%
Activity: 7.1% Activity: 7.1% Activity: 7.1%

   
Join Date: Apr 2015
Posts: 111
Rep Power: 5
Abey will become famous soon enoughAbey will become famous soon enough
UL: 9.30 gb DL: 12.12 gb Ratio: 0.77
Default 4th-September-2015

Thanks for sharing




Reply With Quote
(#17)
Old
Sekar.pr Sekar.pr is offline
TMR Member
Points: 1,810, Level: 11
Points: 1,810, Level: 11 Points: 1,810, Level: 11 Points: 1,810, Level: 11
Level up: 87%, 40 Points needed
Level up: 87% Level up: 87% Level up: 87%
Activity: 0%
Activity: 0% Activity: 0% Activity: 0%

   
Join Date: Oct 2014
Posts: 402
Rep Power: 5
Sekar.pr will become famous soon enough
UL: 97.67 gb DL: 81.90 gb Ratio: 1.19
Default 4th-September-2015

Thanks Bro




Reply With Quote
(#18)
Old
SubbuRAJesh SubbuRAJesh is offline
TMR Member
Points: 933, Level: 7
Points: 933, Level: 7 Points: 933, Level: 7 Points: 933, Level: 7
Level up: 92%, 17 Points needed
Level up: 92% Level up: 92% Level up: 92%
Activity: 33.3%
Activity: 33.3% Activity: 33.3% Activity: 33.3%

   
Join Date: Mar 2015
Posts: 474
Rep Power: 4
SubbuRAJesh is on a distinguished road
UL: 438.88 gb DL: 509.31 gb Ratio: 0.86
Default 5th-September-2015

Quote:
Originally Posted by #@Rockers@# View Post
Vikramadithyan (2014) - Blu-Ray - X264 - DTS - ESubs - 720P - 1.6GB -@Rockers@ -Team TMR


Code:
General
Complete name                            :Vikramadithyan (2014) - Blu-Ray - X264 - DTS - ESubs - 720P -@Rockers@ -Team TMR.mkv
Format                                   : Matroska
Format version                           : Version 2
File size                                : 1.63 GiB
Duration                                 : 2h 23mn
Overall bit rate                         : 1 625 Kbps
Movie name                               : Team Jaffa Exclusive
Encoded date                             : UTC 2014-11-13 02:58:37
Writing application                      : mkvmerge v4.1.1 ('Bouncin' Back') built on Jul  3 2010 22:54:08
Writing library                          : libebml v1.0.0 + libmatroska v1.0.0
DURATION                                 : 02:23:57.167000000
NUMBER_OF_FRAMES                         : 207292
NUMBER_OF_BYTES                          : 925678362
_STATISTICS_WRITING_APP                  : mkvmerge v7.0.0 ('Where We Going') 32bit built on Jun  9 2014 15:08:34
_STATISTICS_WRITING_DATE_UTC             : 2014-11-12 02:32:02
_STATISTICS_TAGS                         : BPS DURATION NUMBER_OF_FRAMES NUMBER_OF_BYTES

Video
ID                                       : 1
Format                                   : AVC
Format/Info                              : Advanced Video Codec
Format profile                           : Main@L3.1
Format settings, CABAC                   : Yes
Format settings, ReFrames                : 4 frames
Codec ID                                 : V_MPEG4/ISO/AVC
Duration                                 : 2h 23mn
Bit rate                                 : 862 Kbps
Width                                    : 1 280 pixels
Height                                   : 544 pixels
Display aspect ratio                     : 2.35:1
Frame rate                               : 24.000 fps
Color space                              : YUV
Chroma subsampling                       : 4:2:0
Bit depth                                : 8 bits
Scan type                                : Progressive
Bits/(Pixel*Frame)                       : 0.052
Stream size                              : 863 MiB (52%)
Writing library                          : x264 core 142 r2431 ac76440
Encoding settings                        : cabac=1 / ref=1 / deblock=1:0:0 / 
Default                                  : Yes
Forced                                   : No

Audio
ID                                       : 2
Format                                   : DTS
Format/Info                              : Digital Theater Systems
Format profile                           : ES
Muxing mode                              : Header stripping
Codec ID                                 : A_DTS
Duration                                 : 2h 23mn
Bit rate mode                            : Constant
Bit rate                                 : 754 Kbps
Channel(s)                               : 6 channels
Channel positions                        : Front: L C R, Side: L R, LFE
Sampling rate                            : 48.0 KHz
Bit depth                                : 24 bits
Compression mode                         : Lossy
Stream size                              : 777 MiB (46%)
Default                                  : Yes
Forced                                   : No

Text
ID                                       : 3
Format                                   : UTF-8
Codec ID                                 : S_TEXT/UTF8
Codec ID/Info                            : UTF-8 Plain Text
Default                                  : Yes
Forced                                   : No






credits:Team Jaffa



Please share with proper credit else don't download here!


Pls support by donating.

very niceeeeeeeeeee




Reply With Quote
(#19)
Old
SubbuRAJesh SubbuRAJesh is offline
TMR Member
Points: 933, Level: 7
Points: 933, Level: 7 Points: 933, Level: 7 Points: 933, Level: 7
Level up: 92%, 17 Points needed
Level up: 92% Level up: 92% Level up: 92%
Activity: 33.3%
Activity: 33.3% Activity: 33.3% Activity: 33.3%

   
Join Date: Mar 2015
Posts: 474
Rep Power: 4
SubbuRAJesh is on a distinguished road
UL: 438.88 gb DL: 509.31 gb Ratio: 0.86
Default 5th-September-2015

Quote:
Originally Posted by #@Rockers@# View Post
Vikramadithyan (2014) - Blu-Ray - X264 - DTS - ESubs - 720P - 1.6GB -@Rockers@ -Team TMR


Code:
General
Complete name                            :Vikramadithyan (2014) - Blu-Ray - X264 - DTS - ESubs - 720P -@Rockers@ -Team TMR.mkv
Format                                   : Matroska
Format version                           : Version 2
File size                                : 1.63 GiB
Duration                                 : 2h 23mn
Overall bit rate                         : 1 625 Kbps
Movie name                               : Team Jaffa Exclusive
Encoded date                             : UTC 2014-11-13 02:58:37
Writing application                      : mkvmerge v4.1.1 ('Bouncin' Back') built on Jul  3 2010 22:54:08
Writing library                          : libebml v1.0.0 + libmatroska v1.0.0
DURATION                                 : 02:23:57.167000000
NUMBER_OF_FRAMES                         : 207292
NUMBER_OF_BYTES                          : 925678362
_STATISTICS_WRITING_APP                  : mkvmerge v7.0.0 ('Where We Going') 32bit built on Jun  9 2014 15:08:34
_STATISTICS_WRITING_DATE_UTC             : 2014-11-12 02:32:02
_STATISTICS_TAGS                         : BPS DURATION NUMBER_OF_FRAMES NUMBER_OF_BYTES

Video
ID                                       : 1
Format                                   : AVC
Format/Info                              : Advanced Video Codec
Format profile                           : Main@L3.1
Format settings, CABAC                   : Yes
Format settings, ReFrames                : 4 frames
Codec ID                                 : V_MPEG4/ISO/AVC
Duration                                 : 2h 23mn
Bit rate                                 : 862 Kbps
Width                                    : 1 280 pixels
Height                                   : 544 pixels
Display aspect ratio                     : 2.35:1
Frame rate                               : 24.000 fps
Color space                              : YUV
Chroma subsampling                       : 4:2:0
Bit depth                                : 8 bits
Scan type                                : Progressive
Bits/(Pixel*Frame)                       : 0.052
Stream size                              : 863 MiB (52%)
Writing library                          : x264 core 142 r2431 ac76440
Encoding settings                        : cabac=1 / ref=1 / deblock=1:0:0 / 
Default                                  : Yes
Forced                                   : No

Audio
ID                                       : 2
Format                                   : DTS
Format/Info                              : Digital Theater Systems
Format profile                           : ES
Muxing mode                              : Header stripping
Codec ID                                 : A_DTS
Duration                                 : 2h 23mn
Bit rate mode                            : Constant
Bit rate                                 : 754 Kbps
Channel(s)                               : 6 channels
Channel positions                        : Front: L C R, Side: L R, LFE
Sampling rate                            : 48.0 KHz
Bit depth                                : 24 bits
Compression mode                         : Lossy
Stream size                              : 777 MiB (46%)
Default                                  : Yes
Forced                                   : No

Text
ID                                       : 3
Format                                   : UTF-8
Codec ID                                 : S_TEXT/UTF8
Codec ID/Info                            : UTF-8 Plain Text
Default                                  : Yes
Forced                                   : No






credits:Team Jaffa



Please share with proper credit else don't download here!


Pls support by donating.

very niceeeeeeeeeeeeee




Reply With Quote
(#20)
Old
SubbuRAJesh SubbuRAJesh is offline
TMR Member
Points: 933, Level: 7
Points: 933, Level: 7 Points: 933, Level: 7 Points: 933, Level: 7
Level up: 92%, 17 Points needed
Level up: 92% Level up: 92% Level up: 92%
Activity: 33.3%
Activity: 33.3% Activity: 33.3% Activity: 33.3%

   
Join Date: Mar 2015
Posts: 474
Rep Power: 4
SubbuRAJesh is on a distinguished road
UL: 438.88 gb DL: 509.31 gb Ratio: 0.86
Default 5th-September-2015

Quote:
Originally Posted by #@Rockers@# View Post
Vikramadithyan (2014) - Blu-Ray - X264 - DTS - ESubs - 720P - 1.6GB -@Rockers@ -Team TMR


Code:
General
Complete name                            :Vikramadithyan (2014) - Blu-Ray - X264 - DTS - ESubs - 720P -@Rockers@ -Team TMR.mkv
Format                                   : Matroska
Format version                           : Version 2
File size                                : 1.63 GiB
Duration                                 : 2h 23mn
Overall bit rate                         : 1 625 Kbps
Movie name                               : Team Jaffa Exclusive
Encoded date                             : UTC 2014-11-13 02:58:37
Writing application                      : mkvmerge v4.1.1 ('Bouncin' Back') built on Jul  3 2010 22:54:08
Writing library                          : libebml v1.0.0 + libmatroska v1.0.0
DURATION                                 : 02:23:57.167000000
NUMBER_OF_FRAMES                         : 207292
NUMBER_OF_BYTES                          : 925678362
_STATISTICS_WRITING_APP                  : mkvmerge v7.0.0 ('Where We Going') 32bit built on Jun  9 2014 15:08:34
_STATISTICS_WRITING_DATE_UTC             : 2014-11-12 02:32:02
_STATISTICS_TAGS                         : BPS DURATION NUMBER_OF_FRAMES NUMBER_OF_BYTES

Video
ID                                       : 1
Format                                   : AVC
Format/Info                              : Advanced Video Codec
Format profile                           : Main@L3.1
Format settings, CABAC                   : Yes
Format settings, ReFrames                : 4 frames
Codec ID                                 : V_MPEG4/ISO/AVC
Duration                                 : 2h 23mn
Bit rate                                 : 862 Kbps
Width                                    : 1 280 pixels
Height                                   : 544 pixels
Display aspect ratio                     : 2.35:1
Frame rate                               : 24.000 fps
Color space                              : YUV
Chroma subsampling                       : 4:2:0
Bit depth                                : 8 bits
Scan type                                : Progressive
Bits/(Pixel*Frame)                       : 0.052
Stream size                              : 863 MiB (52%)
Writing library                          : x264 core 142 r2431 ac76440
Encoding settings                        : cabac=1 / ref=1 / deblock=1:0:0 / 
Default                                  : Yes
Forced                                   : No

Audio
ID                                       : 2
Format                                   : DTS
Format/Info                              : Digital Theater Systems
Format profile                           : ES
Muxing mode                              : Header stripping
Codec ID                                 : A_DTS
Duration                                 : 2h 23mn
Bit rate mode                            : Constant
Bit rate                                 : 754 Kbps
Channel(s)                               : 6 channels
Channel positions                        : Front: L C R, Side: L R, LFE
Sampling rate                            : 48.0 KHz
Bit depth                                : 24 bits
Compression mode                         : Lossy
Stream size                              : 777 MiB (46%)
Default                                  : Yes
Forced                                   : No

Text
ID                                       : 3
Format                                   : UTF-8
Codec ID                                 : S_TEXT/UTF8
Codec ID/Info                            : UTF-8 Plain Text
Default                                  : Yes
Forced                                   : No






credits:Team Jaffa



Please share with proper credit else don't download here!


Pls support by donating.

Very nicereee




Reply With Quote
Reply

Tags
16gb, 2014, 720p, @rockers@, bluray, dts, esubs, team, tmr, vikramadithyan, x264

Thread Tools
Display Modes

Similar Threads
Thread Thread Starter Forum Replies Last Post
Vikramadithyan (2014) - Malayalam - BD Rip - X264 - 720P - DTS - ESub - Team TMR TMR Rasigan BD/BR - Rips 26 3 Weeks Ago 03:49 PM
Kaththi (2014) Lotus DVDRip - x264 - 400MB - Esubs - @Rockers- Team TMR #@Rockers@# Pre-DVD-Rips 14 17th-July-2018 06:52 PM
Vikramadithyan 2014 DVDRip x264 aac dolbidigital 500mb esubs TMR Chathos DVD-Rips 12 25th-June-2018 07:18 AM
Rajadhi Raja (2014)-Malayalam- DVDRip 720p-x264 AAC 5.1- @Rockers@-Team TMR #@Rockers@# DVD-Rips 15 25th-June-2018 06:23 AM
Vikramadithyan (2014) DVD9 - Untouched - NTSC DTS AC3 - Esub-@Rockers@-Team TMR #@Rockers@# DVD-R 15 24th-June-2018 05:50 AM

Posting Rules
You may not post new threads
You may not post replies
You may not post attachments
You may not edit your posts

BB code is On
Smilies are On
[IMG] code is On
HTML code is Off




Powered by vBulletin® Version 3.8.7
Copyright ©2000 - 2018, vBulletin Solutions, Inc.
vBulletin Skin developed by: vBStyles.com
Ad Management plugin by RedTyger