TAMILMOVIEROCKERS Facebook Official
Ticket Torrents
Go Back   TAMILMOVIEROCKERS > -: Tamil Releases :- > Tamil Dubbed > BD/BR/3D Rips
Reload this Page X-Men Apocalypse (2016) [(TAM-ENG) - 1080p - HDTC - x264 - AC3 5.1 - ESub] - MAZE
Reply
 
Thread Tools Display Modes
(#11)
Old
Saski's Avatar
Saski Saski is offline
Media Blogger
Points: 56,050, Level: 73
Points: 56,050, Level: 73 Points: 56,050, Level: 73 Points: 56,050, Level: 73
Level up: 34%, 1,000 Points needed
Level up: 34% Level up: 34% Level up: 34%
Activity: 99.9%
Activity: 99.9% Activity: 99.9% Activity: 99.9%

I proudly released 155 torrents with 941 snatches
 
 
Join Date: Oct 2014
Posts: 12,404
Rep Power: 63
Saski has a reputation beyond repute
Saski has a reputation beyond reputeSaski has a reputation beyond reputeSaski has a reputation beyond reputeSaski has a reputation beyond reputeSaski has a reputation beyond repute
UL: 133.83 gb DL: 34.34 gb Ratio: 3.90
My Mood: Amused
Default 07-06-2016

Thanks for sharing.





செல்வரின் வரவேற்பு நிறமிருந்தும் மணமில்லா காகிதப்பூ




Reply With Quote
(#12)
Old
Busyboy3007 Busyboy3007 is offline
TMR Member

   
Join Date: Oct 2014
Posts: 96
Rep Power: 5
Busyboy3007 is an unknown quantity at this point
UL: 145.31 gb DL: 54.28 gb Ratio: 2.68
Default 07-06-2016

MovieeeMovieeeMovieee




Reply With Quote
(#13)
Old
Kirildimitrov Kirildimitrov is offline
TMR Member
Points: 4,221, Level: 18
Points: 4,221, Level: 18 Points: 4,221, Level: 18 Points: 4,221, Level: 18
Level up: 93%, 29 Points needed
Level up: 93% Level up: 93% Level up: 93%
Activity: 0%
Activity: 0% Activity: 0% Activity: 0%

   
Join Date: Nov 2015
Posts: 1,426
Rep Power: 8
Kirildimitrov is a jewel in the roughKirildimitrov is a jewel in the roughKirildimitrov is a jewel in the roughKirildimitrov is a jewel in the rough
UL: 19.83 gb DL: 21.24 gb Ratio: 0.93
Default 07-06-2016

nice share, thanks




Reply With Quote
(#14)
Old
Frozy772's Avatar
Frozy772 Frozy772 is offline
TMR Member
Points: 833, Level: 7
Points: 833, Level: 7 Points: 833, Level: 7 Points: 833, Level: 7
Level up: 42%, 117 Points needed
Level up: 42% Level up: 42% Level up: 42%
Activity: 16.7%
Activity: 16.7% Activity: 16.7% Activity: 16.7%

   
Join Date: Apr 2016
Posts: 56
Rep Power: 3
Frozy772 is an unknown quantity at this point
UL: 11.09 gb DL: 11.81 gb Ratio: 0.94
My Mood: Amazed
Default 07-06-2016

Thanks for the share. Please seed after download.

Last edited by Frozy772; 07-06-2016 at 05:04 PM.




Reply With Quote
(#15)
Old
Rageshrocky Rageshrocky is offline
TMR Member
Points: 300, Level: 3
Points: 300, Level: 3 Points: 300, Level: 3 Points: 300, Level: 3
Level up: 50%, 50 Points needed
Level up: 50% Level up: 50% Level up: 50%
Activity: 0%
Activity: 0% Activity: 0% Activity: 0%

   
Join Date: Mar 2016
Posts: 58
Rep Power: 3
Rageshrocky is an unknown quantity at this point
UL: 10.92 gb DL: 1.71 gb Ratio: 6.39
Default 07-06-2016

super bro




Reply With Quote
(#16)
Old
TMR KING's Avatar
TMR KING TMR KING is offline
TMR Member
Points: 40,514, Level: 62
Points: 40,514, Level: 62 Points: 40,514, Level: 62 Points: 40,514, Level: 62
Level up: 13%, 1,136 Points needed
Level up: 13% Level up: 13% Level up: 13%
Activity: 20.0%
Activity: 20.0% Activity: 20.0% Activity: 20.0%

I proudly released 49 torrents with 723 snatches
 
 
Join Date: Oct 2014
Posts: 9,149
Age: 23
Rep Power: 55
TMR KING has a reputation beyond repute
TMR KING has a reputation beyond reputeTMR KING has a reputation beyond reputeTMR KING has a reputation beyond repute
UL: 19.63 tb DL: 7.45 tb Ratio: 2.64
My Mood: Angelic
Default 07-06-2016

Thanks For The Release




Reply With Quote
(#17)
Old
Raja9659 Raja9659 is offline
TMR Member
Points: 1,060, Level: 8
Points: 1,060, Level: 8 Points: 1,060, Level: 8 Points: 1,060, Level: 8
Level up: 55%, 90 Points needed
Level up: 55% Level up: 55% Level up: 55%
Activity: 44.4%
Activity: 44.4% Activity: 44.4% Activity: 44.4%

   
Join Date: Sep 2015
Posts: 119
Rep Power: 4
Raja9659 is an unknown quantity at this point
UL: 24.91 gb DL: 30.42 gb Ratio: 0.82
My Mood: Amused
Default 07-06-2016

thanks for share




Reply With Quote
(#18)
Old
Susi2804 Susi2804 is offline
TMR Member
Points: 5,801, Level: 22
Points: 5,801, Level: 22 Points: 5,801, Level: 22 Points: 5,801, Level: 22
Level up: 51%, 249 Points needed
Level up: 51% Level up: 51% Level up: 51%
Activity: 7.1%
Activity: 7.1% Activity: 7.1% Activity: 7.1%

I proudly released 35 torrents with 527 snatches
 
 
Join Date: Oct 2014
Posts: 768
Rep Power: 14
Susi2804 is a splendid one to beholdSusi2804 is a splendid one to beholdSusi2804 is a splendid one to beholdSusi2804 is a splendid one to beholdSusi2804 is a splendid one to beholdSusi2804 is a splendid one to beholdSusi2804 is a splendid one to behold
UL: 6.40 tb DL: 1.92 tb Ratio: 3.33
Default 07-06-2016

nice one




Reply With Quote
(#19)
Old
TMR.JALALUDEEN's Avatar
TMR.JALALUDEEN TMR.JALALUDEEN is offline
TMR Member
Points: 4,634, Level: 19
Points: 4,634, Level: 19 Points: 4,634, Level: 19 Points: 4,634, Level: 19
Level up: 96%, 16 Points needed
Level up: 96% Level up: 96% Level up: 96%
Activity: 0%
Activity: 0% Activity: 0% Activity: 0%

   
Join Date: Jul 2015
Posts: 1,316
Age: 32
Rep Power: 8
TMR.JALALUDEEN has a spectacular aura aboutTMR.JALALUDEEN has a spectacular aura aboutTMR.JALALUDEEN has a spectacular aura about
UL: 18.09 gb DL: 5.63 gb Ratio: 3.21
My Mood: Hot
Default 08-06-2016

Thanks for shares




Reply With Quote
(#20)
Old
Gan866 Gan866 is offline
TMR Member

   
Join Date: Sep 2015
Posts: 176
Rep Power: 4
Gan866 will become famous soon enough
UL: 9.28 gb DL: 11.84 gb Ratio: 0.78
My Mood: Angelic
DVD5 08-06-2016

[QUOTE=TMR MAZE;228632][CENTER]




X-Men Apocalypse (2016) [(TAM-ENG) - 1080p - HDTC - x264 - AC3 5.1 - ESub] - MAZE

Code:
General
Unique ID                                : 253591044306823458470711928533113985075 (0xBEC7DBCC490035B28085F4F71C915833)
Complete name                            : X-Men Apocalypse (2016) [(TAM-ENG) - 1080p - HDTC - x264 - AC3 5.1 - ESub] - MAZE.mkv
Format                                   : Matroska
Format version                           : Version 4 / Version 2
File size                                : 4.65 GiB
Duration                                 : 2h 23mn
Overall bit rate                         : 4 627 Kbps
Movie name                               : MAZE HDRelease
Encoded date                             : UTC 2016-06-07 06:02:44
Writing application                      : mkvmerge v8.2.0 ('World of Adventure') 64bit
Writing library                          : libebml v1.3.1 + libmatroska v1.4.2

Video
ID                                       : 1
Format                                   : AVC
Format/Info                              : Advanced Video Codec
Format profile                           : High@L4
Format settings, CABAC                   : Yes
Format settings, ReFrames                : 4 frames
Codec ID                                 : V_MPEG4/ISO/AVC
Duration                                 : 2h 23mn
Bit rate                                 : 3 728 Kbps
Width                                    : 1 920 pixels
Height                                   : 792 pixels
Display aspect ratio                     : 2.40:1
Frame rate mode                          : Constant
Frame rate                               : 29.970 (30000/1001) fps
Color space                              : YUV
Chroma subsampling                       : 4:2:0
Bit depth                                : 8 bits
Scan type                                : Progressive
Bits/(Pixel*Frame)                       : 0.082
Stream size                              : 3.75 GiB (81%)
Title                                    : MAZE HDRelease
Writing library                          : x264 core 148 r2665 a01e339
Language                                 : English
Default                                  : Yes
Forced                                   : No

Audio #1
ID                                       : 2
Format                                   : AC-3
Format/Info                              : Audio Coding 3
Mode extension                           : CM (complete main)
Format settings, Endianness              : Big
Codec ID                                 : A_AC3
Duration                                 : 2h 23mn
Bit rate mode                            : Constant
Bit rate                                 : 448 Kbps
Channel(s)                               : 6 channels
Channel positions                        : Front: L C R, Side: L R, LFE
Sampling rate                            : 48.0 KHz
Frame rate                               : 31.250 fps (1536 spf)
Compression mode                         : Lossy
Stream size                              : 461 MiB (10%)
Title                                    : MAZE HDRelease
Language                                 : Tamil
Default                                  : Yes
Forced                                   : No

Audio #2
ID                                       : 3
Format                                   : AC-3
Format/Info                              : Audio Coding 3
Mode extension                           : CM (complete main)
Format settings, Endianness              : Big
Codec ID                                 : A_AC3
Duration                                 : 2h 23mn
Bit rate mode                            : Constant
Bit rate                                 : 448 Kbps
Channel(s)                               : 6 channels
Channel positions                        : Front: L C R, Side: L R, LFE
Sampling rate                            : 48.0 KHz
Frame rate                               : 31.250 fps (1536 spf)
Compression mode                         : Lossy
Stream size                              : 461 MiB (10%)
Title                                    : MAZE HDRelease
Language                                 : English
Default                                  : No
Forced                                   : No

Text
ID                                       : 4
Format                                   : UTF-8
Codec ID                                 : S_TEXT/UTF8
Codec ID/Info                            : UTF-8 Plain Text
Duration                                 : 2h 23mn
Bit rate                                 : 75 bps
Count of elements                        : 1377
Stream size                              : 79.0 KiB (0%)
Title                                    : MAZE HDRelease
Language                                 : English
Default                                  : Yes
Forced                                   : No







Sample Including

Video Source : TOMCAT12 [Thanks]
Tamil Clear Audio Source : TR[Thanks]

Please share with proper credit (MAZERelease)

[B]Thanks for Downloading[




Reply With Quote
Reply

Thread Tools
Display Modes

Similar Threads
Thread Thread Starter Forum Replies Last Post
Azhagu Kutti Chellam (2016) [1080p - HDRip - x264 - AAC - ESub - 1.7GB] - MAZE TMR MAZE Web HD/ Rips (Free Leech) 11 23-05-2018 06:40 AM
Moondram Ulaga Por (2016) [1080p - HDRip - x264 - AAC - ESub - 1.45GB] - MAZE TMR MAZE Web HD/ Rips (Free Leech) 17 15-05-2018 09:36 PM
Irudhi Suttru (2016) [1080p - HDRip - x264 - AAC - ESub - 1.6GB] - MAZE TMR MAZE Web Rips 54 16-03-2018 03:54 AM
Tharai Thappattai (2016) [1080p - HDRip - x264 - AAC - ESub - 1.7GB] - MAZE TMR MAZE Web HD/ Rips (Free Leech) 59 05-10-2017 10:16 AM
Gethu (2016) [1080p - HDRip - x264 - AAC - ESub - 1.6GB] - MAZE TMR MAZE Web HD/ Rips (Free Leech) 43 05-09-2017 06:45 PM

Posting Rules
You may not post new threads
You may not post replies
You may not post attachments
You may not edit your posts

BB code is On
Smilies are On
[IMG] code is On
HTML code is Off




Powered by vBulletin® Version 3.8.7
Copyright ©2000 - 2018, vBulletin Solutions, Inc.
vBulletin Skin developed by: vBStyles.com
Ad Management plugin by RedTyger